fastshare
Podzemní města / Cities of the Underworld (2007)
Vypnout statistiky
KATEGORIEPOSLEDNÍ PŘÍSPĚVKYPOSLEDNÍ OZNÁMENÍSTATISTIKY UŽIVATELE
Nick: Anonymous
Příspěvků: 3367
Hodnost: Warman
Varování: 0
---
Právě je 23 kvě 2018, 09:46





Všechny časy jsou v UTC + 1 hodina




Odeslat nové téma Odpovědět na téma  [ Příspěvků: 2 ] 
 Podzemní města / Cities of the Underworld (2007) 
Autor Zpráva
Private
Private

Registrován: 07 čer 2008, 21:06
Příspěvky: 15
Příspěvek Re: Podzemní města / Cities of the Underworld (2007)

můžeš to dát i na jiné servery jako třeba czshare,sharerapid atd. Díky


15 pro 2011, 13:10
Profil
Sergeant
Sergeant

Registrován: 20 úno 2009, 20:40
Příspěvky: 112
Příspěvek Re: Podzemní města / Cities of the Underworld (2007)

Podzemní města / Cities of the Underworld (2007) / CZ

Re: Podzemní města / Cities of the Underworld (2007)

Re: Podzemní města / Cities of the Underworld (2007)
Jen registrovaní uživatelé mohou vidět odkazy v code. Přihlaste se nebo zaregistrujte ZDARMA.


Re: Podzemní města / Cities of the Underworld (2007)
Jen registrovaní uživatelé mohou vidět odkazy v code. Přihlaste se nebo zaregistrujte ZDARMA.

Re: Podzemní města / Cities of the Underworld (2007)
Jen registrovaní uživatelé mohou vidět odkazy v code. Přihlaste se nebo zaregistrujte ZDARMA.

Re: Podzemní města / Cities of the Underworld (2007) cca 450 MB
Citace:
"Format : AVI
Format/Info : Audio Video Interleave
File size : 467 MiB
Duration : 42mn 29s
Overall bit rate : 1 536 Kbps
Writing library : VirtualDub build 32706/release

Video
ID : 0
Format : MPEG-4 Visual
Format profile : Advanced [email protected]
Format settings, BVOP : 2
Format settings, QPel : No
Format settings, GMC : No warppoints
Format settings, Matrix : Default (H.263)
Muxing mode : Packed bitstream
Codec ID : XVID
Codec ID/Hint : XviD
Duration : 42mn 29s
Bit rate : 1 399 Kbps
Width : 720 pixels
Height : 406 pixels
Display aspect ratio : 16:9
Frame rate : 25.000 fps
Color space : YUV
Chroma subsampling : 4:2:0
Bit depth : 8 bits
Scan type : Progressive
Compression mode : Lossy
Bits/(Pixel*Frame) : 0.191
Stream size : 425 MiB (91%)
Writing library : XviD 1.2.1 (UTC 2008-12-04)

Audio
ID : 1
Format : MPEG Audio
Format version : Version 1
Format profile : Layer 3
Mode : Joint stereo
Mode extension : MS Stereo
Codec ID : 55
Codec ID/Hint : MP3
Duration : 42mn 29s
Bit rate mode : Constant
Bit rate : 128 Kbps
Channel(s) : 2 channels
Sampling rate : 48.0 KHz
Compression mode : Lossy
Stream size : 38.9 MiB (8%)
Alignment : Split accross interleaves
Interleave, duration : 40 ms (1.00 video frame)
Interleave, preload duration : 500 ms
"

Re: Podzemní města / Cities of the Underworld (2007)
S01
Jen registrovaní uživatelé mohou vidět odkazy v code. Přihlaste se nebo zaregistrujte ZDARMA.

+ 3 % WinRAR recovery

S02
Jen registrovaní uživatelé mohou vidět odkazy v code. Přihlaste se nebo zaregistrujte ZDARMA.

+ 3 % WinRAR recovery


07 dub 2012, 20:56
Profil
Zobrazit příspěvky za předchozí:  Seřadit podle  
Odeslat nové téma Odpovědět na téma  [ Příspěvků: 2 ] 

Všechny časy jsou v UTC + 1 hodina


Nemůžete zakládat nová témata v tomto fóru
Nemůžete odpovídat v tomto fóru
Nemůžete upravovat své příspěvky v tomto fóru
Nemůžete mazat své příspěvky v tomto fóru
Nemůžete přikládat soubory v tomto fóru









StahovaniZaSMS Pizza Modena MP3 free download