fastshare
Přežili kousnutí / I Was Bitten (TV seriál) (2008)
Vypnout statistiky
KATEGORIEPOSLEDNÍ PŘÍSPĚVKYPOSLEDNÍ OZNÁMENÍSTATISTIKY UŽIVATELE
Nick: Anonymous
Příspěvků: 3367
Hodnost: Warman
Varování: 0
---
Právě je 24 kvě 2018, 11:14





Všechny časy jsou v UTC + 1 hodina




Odeslat nové téma Odpovědět na téma  [ Příspěvků: 4 ] 
 Přežili kousnutí / I Was Bitten (TV seriál) (2008) 
Autor Zpráva
Private
Private
Uživatelský avatar

Registrován: 29 led 2011, 16:21
Příspěvky: 9
Příspěvek Přežili kousnutí / I Was Bitten (TV seriál) (2008)

Přežili kousnutí / I Was Bitten (2008) TVRip-CZ up by Bushdoktor

Přežili kousnutí / I Was Bitten (TV seriál) (2008)
Jen registrovaní uživatelé mohou vidět odkazy v code. Přihlaste se nebo zaregistrujte ZDARMA.


Přežili kousnutí / I Was Bitten (TV seriál) (2008)
Citace:
Napadlo vás někdy, jaké by to bylo, kdyby na vás z výběhu vyskočil tygr? Nebo vás uštknul had, na jehož jed neexistuje žádné sérum? Ne? Tak tento dokument vám to detailně popíše z pohledu obětí a lékářů, kteří je léčili. Dokument je prokládán realnými záběry kamer a fotografiemi, které jsou občas jen pro silné nátury


Přežili kousnutí 1

Přežili kousnutí / I Was Bitten (TV seriál) (2008)
Přežili kousnutí / I Was Bitten (TV seriál) (2008)

Přežili kousnutí / I Was Bitten (TV seriál) (2008)
Citace:
General
Format : AVI
Format/Info : Audio Video Interleave
File size : 511 MiB
Duration : 43mn 38s
Overall bit rate : 1 639 Kbps
Writing application : VirtualDubMod 1.5.4.1 (build 2066/release)
Writing library : VirtualDubMod build 2066/release

Video
ID : 0
Format : MPEG-4 Visual
Format settings, BVOP : 1
Format settings, QPel : No
Format settings, GMC : No warppoints
Format settings, Matrix : Default (H.263)
Muxing mode : Packed bitstream
Codec ID : DX50
Codec ID/Hint : DivX 5
Duration : 43mn 38s
Bit rate : 1 501 Kbps
Width : 704 pixels
Height : 528 pixels
Display aspect ratio : 4:3
Frame rate : 25.000 fps
Color space : YUV
Chroma subsampling : 4:2:0
Bit depth : 8 bits
Scan type : Progressive
Compression mode : Lossy
Bits/(Pixel*Frame) : 0.162
Stream size : 468 MiB (92%)
Writing library : DivX 5.0.5 (UTC 2003-04-24)

Audio
ID : 1
Format : MPEG Audio
Format version : Version 1
Format profile : Layer 3
Mode : Joint stereo
Mode extension : MS Stereo
Codec ID : 55
Codec ID/Hint : MP3
Duration : 43mn 38s
Bit rate mode : Constant
Bit rate : 128 Kbps
Channel(s) : 2 channels
Sampling rate : 44.1 KHz
Compression mode : Lossy
Stream size : 39.9 MiB (8%)
Alignment : Split accross interleaves
Interleave, duration : 40 ms (1.00 video frame)
Interleave, preload duration : 501 ms


Přežili kousnutí / I Was Bitten (TV seriál) (2008)
Jen registrovaní uživatelé mohou vidět odkazy v code. Přihlaste se nebo zaregistrujte ZDARMA.


Přežili kousnutí / I Was Bitten (TV seriál) (2008)
Jen registrovaní uživatelé mohou vidět odkazy v code. Přihlaste se nebo zaregistrujte ZDARMA.


Přežili kousnutí / I Was Bitten (TV seriál) (2008)
Jen registrovaní uživatelé mohou vidět odkazy v code. Přihlaste se nebo zaregistrujte ZDARMA.


Přežili kousnutí / I Was Bitten (TV seriál) (2008)
Jen registrovaní uživatelé mohou vidět odkazy v code. Přihlaste se nebo zaregistrujte ZDARMA.


Přežili kousnutí / I Was Bitten (TV seriál) (2008)
Jen registrovaní uživatelé mohou vidět odkazy v code. Přihlaste se nebo zaregistrujte ZDARMA.


Přežili kousnutí / I Was Bitten (TV seriál) (2008)
Jen registrovaní uživatelé mohou vidět odkazy v code. Přihlaste se nebo zaregistrujte ZDARMA.


Přežili kousnutí 2

Přežili kousnutí / I Was Bitten (TV seriál) (2008)
Přežili kousnutí / I Was Bitten (TV seriál) (2008)

Přežili kousnutí / I Was Bitten (TV seriál) (2008)
Citace:
General
Format : AVI
Format/Info : Audio Video Interleave
File size : 513 MiB
Duration : 43mn 45s
Overall bit rate : 1 641 Kbps
Writing application : VirtualDubMod 1.5.4.1 (build 2066/release)
Writing library : VirtualDubMod build 2066/release

Video
ID : 0
Format : MPEG-4 Visual
Format settings, BVOP : 1
Format settings, QPel : No
Format settings, GMC : No warppoints
Format settings, Matrix : Default (H.263)
Muxing mode : Packed bitstream
Codec ID : DX50
Codec ID/Hint : DivX 5
Duration : 43mn 45s
Bit rate : 1 503 Kbps
Width : 704 pixels
Height : 528 pixels
Display aspect ratio : 4:3
Frame rate : 25.000 fps
Color space : YUV
Chroma subsampling : 4:2:0
Bit depth : 8 bits
Scan type : Progressive
Compression mode : Lossy
Bits/(Pixel*Frame) : 0.162
Stream size : 470 MiB (92%)
Writing library : DivX 5.0.5 (UTC 2003-04-24)

Audio
ID : 1
Format : MPEG Audio
Format version : Version 1
Format profile : Layer 3
Mode : Joint stereo
Mode extension : MS Stereo
Codec ID : 55
Codec ID/Hint : MP3
Duration : 43mn 45s
Bit rate mode : Constant
Bit rate : 128 Kbps
Channel(s) : 2 channels
Sampling rate : 44.1 KHz
Compression mode : Lossy
Stream size : 40.0 MiB (8%)
Alignment : Split accross interleaves
Interleave, duration : 40 ms (1.00 video frame)
Interleave, preload duration : 501 ms


Přežili kousnutí / I Was Bitten (TV seriál) (2008)
Jen registrovaní uživatelé mohou vidět odkazy v code. Přihlaste se nebo zaregistrujte ZDARMA.


Přežili kousnutí / I Was Bitten (TV seriál) (2008)
Jen registrovaní uživatelé mohou vidět odkazy v code. Přihlaste se nebo zaregistrujte ZDARMA.


Přežili kousnutí / I Was Bitten (TV seriál) (2008)
Jen registrovaní uživatelé mohou vidět odkazy v code. Přihlaste se nebo zaregistrujte ZDARMA.


Přežili kousnutí / I Was Bitten (TV seriál) (2008)
Jen registrovaní uživatelé mohou vidět odkazy v code. Přihlaste se nebo zaregistrujte ZDARMA.


Přežili kousnutí / I Was Bitten (TV seriál) (2008)
Jen registrovaní uživatelé mohou vidět odkazy v code. Přihlaste se nebo zaregistrujte ZDARMA.


Přežili kousnutí / I Was Bitten (TV seriál) (2008)
Jen registrovaní uživatelé mohou vidět odkazy v code. Přihlaste se nebo zaregistrujte ZDARMA.


Přežili kousnutí 3

Přežili kousnutí / I Was Bitten (TV seriál) (2008)
Přežili kousnutí / I Was Bitten (TV seriál) (2008)

Přežili kousnutí / I Was Bitten (TV seriál) (2008)
Citace:
General
Format : AVI
Format/Info : Audio Video Interleave
File size : 507 MiB
Duration : 43mn 18s
Overall bit rate : 1 638 Kbps
Writing application : VirtualDubMod 1.5.4.1 (build 2066/release)
Writing library : VirtualDubMod build 2066/release

Video
ID : 0
Format : MPEG-4 Visual
Format settings, BVOP : 1
Format settings, QPel : No
Format settings, GMC : No warppoints
Format settings, Matrix : Default (H.263)
Muxing mode : Packed bitstream
Codec ID : DX50
Codec ID/Hint : DivX 5
Duration : 43mn 18s
Bit rate : 1 501 Kbps
Width : 704 pixels
Height : 528 pixels
Display aspect ratio : 4:3
Frame rate : 25.000 fps
Color space : YUV
Chroma subsampling : 4:2:0
Bit depth : 8 bits
Scan type : Progressive
Compression mode : Lossy
Bits/(Pixel*Frame) : 0.161
Stream size : 465 MiB (92%)
Writing library : DivX 5.0.5 (UTC 2003-04-24)

Audio
ID : 1
Format : MPEG Audio
Format version : Version 1
Format profile : Layer 3
Mode : Joint stereo
Mode extension : MS Stereo
Codec ID : 55
Codec ID/Hint : MP3
Duration : 43mn 18s
Bit rate mode : Constant
Bit rate : 128 Kbps
Channel(s) : 2 channels
Sampling rate : 44.1 KHz
Compression mode : Lossy
Stream size : 39.6 MiB (8%)
Alignment : Split accross interleaves
Interleave, duration : 40 ms (1.00 video frame)
Interleave, preload duration : 501 ms


Přežili kousnutí / I Was Bitten (TV seriál) (2008)
Jen registrovaní uživatelé mohou vidět odkazy v code. Přihlaste se nebo zaregistrujte ZDARMA.


Přežili kousnutí / I Was Bitten (TV seriál) (2008)
Jen registrovaní uživatelé mohou vidět odkazy v code. Přihlaste se nebo zaregistrujte ZDARMA.


Přežili kousnutí / I Was Bitten (TV seriál) (2008)
Jen registrovaní uživatelé mohou vidět odkazy v code. Přihlaste se nebo zaregistrujte ZDARMA.


Přežili kousnutí / I Was Bitten (TV seriál) (2008)
Jen registrovaní uživatelé mohou vidět odkazy v code. Přihlaste se nebo zaregistrujte ZDARMA.


Přežili kousnutí / I Was Bitten (TV seriál) (2008)
Jen registrovaní uživatelé mohou vidět odkazy v code. Přihlaste se nebo zaregistrujte ZDARMA.


Přežili kousnutí / I Was Bitten (TV seriál) (2008)
Jen registrovaní uživatelé mohou vidět odkazy v code. Přihlaste se nebo zaregistrujte ZDARMA.


Přežili kousnutí 4

Přežili kousnutí / I Was Bitten (TV seriál) (2008)
Přežili kousnutí / I Was Bitten (TV seriál) (2008)

Přežili kousnutí / I Was Bitten (TV seriál) (2008)
Citace:
General
Format : AVI
Format/Info : Audio Video Interleave
File size : 542 MiB
Duration : 43mn 30s
Overall bit rate : 1 741 Kbps
Writing application : VirtualDubMod 1.5.4.1 (build 2066/release)
Writing library : VirtualDubMod build 2066/release

Video
ID : 0
Format : MPEG-4 Visual
Format settings, BVOP : 1
Format settings, QPel : No
Format settings, GMC : No warppoints
Format settings, Matrix : Default (H.263)
Muxing mode : Packed bitstream
Codec ID : DX50
Codec ID/Hint : DivX 5
Duration : 43mn 30s
Bit rate : 1 604 Kbps
Width : 704 pixels
Height : 528 pixels
Display aspect ratio : 4:3
Frame rate : 25.000 fps
Color space : YUV
Chroma subsampling : 4:2:0
Bit depth : 8 bits
Scan type : Progressive
Compression mode : Lossy
Bits/(Pixel*Frame) : 0.173
Stream size : 499 MiB (92%)
Writing library : DivX 5.0.5 (UTC 2003-04-24)

Audio
ID : 1
Format : MPEG Audio
Format version : Version 1
Format profile : Layer 3
Mode : Joint stereo
Mode extension : MS Stereo
Codec ID : 55
Codec ID/Hint : MP3
Duration : 43mn 30s
Bit rate mode : Constant
Bit rate : 128 Kbps
Channel(s) : 2 channels
Sampling rate : 44.1 KHz
Compression mode : Lossy
Stream size : 39.7 MiB (7%)
Alignment : Split accross interleaves
Interleave, duration : 40 ms (1.00 video frame)
Interleave, preload duration : 500 ms


Přežili kousnutí / I Was Bitten (TV seriál) (2008)
Jen registrovaní uživatelé mohou vidět odkazy v code. Přihlaste se nebo zaregistrujte ZDARMA.


Přežili kousnutí / I Was Bitten (TV seriál) (2008)
Jen registrovaní uživatelé mohou vidět odkazy v code. Přihlaste se nebo zaregistrujte ZDARMA.


Přežili kousnutí / I Was Bitten (TV seriál) (2008)
Jen registrovaní uživatelé mohou vidět odkazy v code. Přihlaste se nebo zaregistrujte ZDARMA.


Přežili kousnutí / I Was Bitten (TV seriál) (2008)
Jen registrovaní uživatelé mohou vidět odkazy v code. Přihlaste se nebo zaregistrujte ZDARMA.


Přežili kousnutí / I Was Bitten (TV seriál) (2008)
Jen registrovaní uživatelé mohou vidět odkazy v code. Přihlaste se nebo zaregistrujte ZDARMA.


Přežili kousnutí / I Was Bitten (TV seriál) (2008)
Jen registrovaní uživatelé mohou vidět odkazy v code. Přihlaste se nebo zaregistrujte ZDARMA.


Přežili kousnutí 5

Přežili kousnutí / I Was Bitten (TV seriál) (2008)
Přežili kousnutí / I Was Bitten (TV seriál) (2008)

Přežili kousnutí / I Was Bitten (TV seriál) (2008)
Citace:
General
Format : AVI
Format/Info : Audio Video Interleave
File size : 512 MiB
Duration : 43mn 40s
Overall bit rate : 1 638 Kbps
Writing application : VirtualDubMod 1.5.4.1 (build 2066/release)
Writing library : VirtualDubMod build 2066/release

Video
ID : 0
Format : MPEG-4 Visual
Format settings, BVOP : 1
Format settings, QPel : No
Format settings, GMC : No warppoints
Format settings, Matrix : Default (H.263)
Muxing mode : Packed bitstream
Codec ID : DX50
Codec ID/Hint : DivX 5
Duration : 43mn 40s
Bit rate : 1 501 Kbps
Width : 704 pixels
Height : 528 pixels
Display aspect ratio : 4:3
Frame rate : 25.000 fps
Color space : YUV
Chroma subsampling : 4:2:0
Bit depth : 8 bits
Scan type : Progressive
Compression mode : Lossy
Bits/(Pixel*Frame) : 0.161
Stream size : 469 MiB (92%)
Writing library : DivX 5.0.5 (UTC 2003-04-24)

Audio
ID : 1
Format : MPEG Audio
Format version : Version 1
Format profile : Layer 3
Mode : Joint stereo
Mode extension : MS Stereo
Codec ID : 55
Codec ID/Hint : MP3
Duration : 43mn 40s
Bit rate mode : Constant
Bit rate : 128 Kbps
Channel(s) : 2 channels
Sampling rate : 44.1 KHz
Compression mode : Lossy
Stream size : 39.9 MiB (8%)
Alignment : Split accross interleaves
Interleave, duration : 40 ms (1.00 video frame)
Interleave, preload duration : 501 ms


Přežili kousnutí / I Was Bitten (TV seriál) (2008)
Jen registrovaní uživatelé mohou vidět odkazy v code. Přihlaste se nebo zaregistrujte ZDARMA.


Přežili kousnutí / I Was Bitten (TV seriál) (2008)
Jen registrovaní uživatelé mohou vidět odkazy v code. Přihlaste se nebo zaregistrujte ZDARMA.


Přežili kousnutí / I Was Bitten (TV seriál) (2008)
Jen registrovaní uživatelé mohou vidět odkazy v code. Přihlaste se nebo zaregistrujte ZDARMA.


Přežili kousnutí / I Was Bitten (TV seriál) (2008)
Jen registrovaní uživatelé mohou vidět odkazy v code. Přihlaste se nebo zaregistrujte ZDARMA.


Přežili kousnutí / I Was Bitten (TV seriál) (2008)
Jen registrovaní uživatelé mohou vidět odkazy v code. Přihlaste se nebo zaregistrujte ZDARMA.


Přežili kousnutí / I Was Bitten (TV seriál) (2008)
Jen registrovaní uživatelé mohou vidět odkazy v code. Přihlaste se nebo zaregistrujte ZDARMA.


PASS:
Citace:
NO


P S :
- Linky sú kombinovateľné, ak majú rovnakú veľkosť a počet partov!
- Moje uploady rozbaľujte vždy winrarom!
- V prípade problémov pište SS!!
- Reupload len na požiadanie SS!!
- Moje uploady sú voľne šíriteľné !!!
- Ďakujem Vám za stiahnutie a prijemnú zábavu Vám prajem!
- Papaaaa


19 dub 2012, 10:10
Profil
Private
Private

Registrován: 26 lis 2012, 18:31
Příspěvky: 1
Příspěvek Re: Přežili kousnutí / I Was Bitten (TV seriál) (2008)

prosím o reupload všeho, sháním tento dokument léta a je jen zde, žádný link nefunguje.


27 lis 2012, 18:37
Profil
Private
Private
Uživatelský avatar

Registrován: 01 bře 2008, 10:13
Příspěvky: 11
Příspěvek Re: Přežili kousnutí / I Was Bitten (TV seriál) (2008)

share-rapid jde :)


12 pro 2012, 18:23
Profil
Captain
Captain
Uživatelský avatar

Registrován: 13 dub 2009, 18:53
Příspěvky: 256
Příspěvek Re: Přežili kousnutí / I Was Bitten (TV seriál) (2008)

Né asi :D Share Rapid funguje - je to poradnej humus :D, ale je to fakt zajimavy, az zase pujdu na houby tak si nesmim zapomenout upilovanou brokonvici, vim, ze by to zadni medvedi byt nemeli, ale to co prozival a proziva ten chlap, jak ho napadla ta medvedice, to teda byla vazne sila!!!

_________________
CPU: Core i5 3570 - OC 4,2Ghz + Scythe Ninja 3 revB
MB: ASRock Z77 Pro 4
RAM: Kingston 16GB 1600MHz DDR3 CL9
HDD: SSD A-Data SP900 64GB + 1TB Samsung SATA + 4TB WD Blue SATA 3
GPU: Sapphire R9 290 TRI-X 4GB DDR5 Hawai + Accelero Ext.4
PSU: Corsair RM750i
OS: WIN 10 Pro


29 led 2013, 01:21
Profil
Zobrazit příspěvky za předchozí:  Seřadit podle  
Odeslat nové téma Odpovědět na téma  [ Příspěvků: 4 ] 

Všechny časy jsou v UTC + 1 hodina


Nemůžete zakládat nová témata v tomto fóru
Nemůžete odpovídat v tomto fóru
Nemůžete upravovat své příspěvky v tomto fóru
Nemůžete mazat své příspěvky v tomto fóru
Nemůžete přikládat soubory v tomto fóru









StahovaniZaSMS Pizza Modena MP3 free download