fastshare
Letecké katastrofy / Mayday-Season 14 (2015)
Vypnout statistiky
KATEGORIEPOSLEDNÍ PŘÍSPĚVKYPOSLEDNÍ OZNÁMENÍSTATISTIKY UŽIVATELE
Nick: Anonymous
Příspěvků: 2306
Hodnost: Warman
Varování: 0
---
Právě je 26 říj 2020, 07:43





Všechny časy jsou v UTC + 1 hodina




Odeslat nové téma Odpovědět na téma  [ Příspěvek: 1 ] 
 Letecké katastrofy / Mayday-Season 14 (2015) 
Autor Zpráva
Colonel 4 th class
Colonel 4 th class

Registrován: 04 čer 2009, 01:05
Příspěvky: 501
Příspěvek Letecké katastrofy / Mayday-Season 14 (2015)

Letecké katastrofy / Mayday-Season 14 (2015)

CZ dabing


Letecké katastrofy / Mayday-Season 14 (2015)
Jen registrovaní uživatelé mohou vidět odkazy v code. Přihlaste se nebo zaregistrujte ZDARMA.

Dokumentární / Akční / Drama / Katastrofický

Obsah filmu: Letecká doprava je nejbezpečnějším způsobem přepravování osob i zboží po celé naší planetě. Každou minutu jsou ve vzduchu tisíce strojů letících všemi možnými směry. Většina z nich dosáhne bez problémů svého cíle. Jsou ale okamžiky, kdy se posádky a cestující dostanou do situace, jež může skončit tragicky.
Námětem šestidílného kanadského cyklu dokumentárních rekonstrukcí jsou události, které se na kratší či delší dobu staly středem pozornosti sdělovacích prostředků. Autoři rekonstruují průběhy známých leteckých nehod prostřednictvím obrazových a zvukových archivních materiálů, výpovědí svědků, pozůstalých, leteckých odborníků a vyšetřovatelů. Svou důležitou roli má také počítačová animace, jež evokuje to, co snad mohli jen tušit dispečeři u svých radarů, a to, co v několika posledních sekundách svého života viděli muži v pilotních kabinách. Charakteristickou součástí cyklu jsou pak hrané scény, které vypovídají o tom, k čemu všemu během letu došlo a jak se s mimořádnými situacemi vyrovnávali lidé za řídícími pákami, jejich neviditelní partneři ve střediscích letového provozu a konečně i pasažéři, jež svůj osud vložili do jejich rukou.

INFO:
Jedna časť trvá cca 45 minút
Jedná sa TVRip z National Geographic
Toto sú všetky časti 14tej série ktoré boli vysielané na NatGeo vrátane špeciálu o stratenom lete Malaysia MH370

Zoznam Častí:

S14E01 - M1 Plane Crash - Boeing 737-400
S14E02 - Boeing 767-300ER - Tragedy in the Air
S14E03 - Vanishing Act - Boeing 737-200
S14E04 - Boeing 737-200 - Sideswiped
S14E05 - McDonnell Douglas MD-11F - Death At Narita
S14E06 - The Death of JFK Jnr
S14E07 - Concorde - Up In Flames
S14E08 - Learjet 45- Inner City Carnage
S14E09 - Fairchild SA227-BC Metro III - 3rd Time Unlucky
S14E10 - Boeing 737-200C - Death In The Arctic
S14E11 - Malaysia 370 What Happened

Citace:
Format: MPEG-PS
File size: 798 MiB
Duration: 44mn 47s
Overall bit rate mode: Variable
Overall bit rate: 2 490 Kbps

Video
ID: 224 (0xE0)
Format: MPEG Video
Format version: Version 2
Format profile: [email protected]
Format settings, BVOP: Yes
Format settings, Matrix: Custom
Format settings, GOP: Variable
Duration: 44mn 47s
Bit rate mode: Variable
Bit rate: 2 313 Kbps
Maximum bit rate: 15.0 Mbps
Width: 720 pixels
Height: 576 pixels
Display aspect ratio: 16:9
Frame rate: 25.000 fps
Standard: PAL
Color space: YUV
Chroma subsampling: 4:2:0
Bit depth: 8 bits
Scan type: Interlaced
Scan order: Top Field First
Compression mode: Lossy
Bits/(Pixel*Frame): 0.223
Time code of first frame: 00:00:00:00
Time code source: Group of pictures header
Stream size: 741 MiB (93%)

Audio
ID: 192 (0xC0)
Format: MPEG Audio
Format version: Version 1
Format profile: Layer 2
Duration: 44mn 47s
Bit rate mode: Constant
Bit rate: 128 Kbps
Channel(s): 2 channels
Sampling rate: 48.0 KHz
Compression mode: Lossy
Stream size: 41.0 MiB


Jen registrovaní uživatelé mohou vidět odkazy v code. Přihlaste se nebo zaregistrujte ZDARMA.


Jen registrovaní uživatelé mohou vidět odkazy v code. Přihlaste se nebo zaregistrujte ZDARMA.


21 kvě 2015, 11:35
Profil
Zobrazit příspěvky za předchozí:  Seřadit podle  
Odeslat nové téma Odpovědět na téma  [ Příspěvek: 1 ] 

Všechny časy jsou v UTC + 1 hodina


Nemůžete zakládat nová témata v tomto fóru
Nemůžete odpovídat v tomto fóru
Nemůžete upravovat své příspěvky v tomto fóru
Nemůžete mazat své příspěvky v tomto fóru
Nemůžete přikládat soubory v tomto fóru









StahovaniZaSMS Pizza Modena MP3 free download