fastshare
V.I.P. / Beuiaipi (2017)
Vypnout statistiky
KATEGORIEPOSLEDNÍ PŘÍSPĚVKYPOSLEDNÍ OZNÁMENÍSTATISTIKY UŽIVATELE
Nick: Anonymous
Příspěvků: 3379
Hodnost: Warman
Varování: 0
---
Právě je 19 dub 2018, 12:30





Všechny časy jsou v UTC + 1 hodina


Pravidla fóra





Odeslat nové téma Odpovědět na téma  [ Příspěvek: 1 ] 
 V.I.P. / Beuiaipi (2017) 
Autor Zpráva
Major
Major

Registrován: 15 zář 2017, 11:53
Příspěvky: 346
Příspěvek V.I.P. / Beuiaipi (2017)

V.I.P. / Beuiaipi (2017)


V.I.P. / Beuiaipi (2017)


Jen registrovaní uživatelé mohou vidět odkazy v code. Přihlaste se nebo zaregistrujte ZDARMA.



V.I.P.2017.1080p.BDRip.x264.CZ.Titulky


Format : Matroska
Format version : Version 4 / Version 2
File size : 2.63 GiB
Duration : 2h 7mn
Overall bit rate : 2 948 Kbps

Video
ID : 1
Format : AVC
Format/Info : Advanced Video Codec
Format profile : [email protected]
Format settings, CABAC : Yes
Format settings, ReFrames : 4 frames
Codec ID : V_MPEG4/ISO/AVC
Duration : 2h 7mn
Bit rate : 2 500 Kbps
Width : 1 920 pixels
Height : 800 pixels
Display aspect ratio : 2.40:1
Frame rate : 23.976 fps
Color space : YUV
Chroma subsampling : 4:2:0
Bit depth : 8 bits
Scan type : Progressive
Bits/(Pixel*Frame) : 0.068
Stream size : 2.18 GiB (83%)

Audio
ID : 2
Format : AC-3
Format/Info : Audio Coding 3
Mode extension : CM (complete main)
Codec ID : A_AC3
Duration : 2h 7mn
Bit rate mode : Constant
Bit rate : 448 Kbps
Channel(s) : 6 channels
Channel positions : Front: L C R, Side: L R, LFE
Sampling rate : 48.0 KHz
Bit depth : 16 bits
Compression mode : Lossy
Stream size : 410 MiB (15%)
Title : AC3 5.1
Language : Korean

Text
ID : 3
Format : UTF-8
Codec ID : S_TEXT/UTF8
Codec ID/Info : UTF-8 Plain Text
Language : Czech



Jen registrovaní uživatelé mohou vidět odkazy v code. Přihlaste se nebo zaregistrujte ZDARMA.

_________________
Nepřeju si reup mých příspěvků na stejný server !!!!


06 bře 2018, 23:38
Profil
Zobrazit příspěvky za předchozí:  Seřadit podle  
Odeslat nové téma Odpovědět na téma  [ Příspěvek: 1 ] 

Všechny časy jsou v UTC + 1 hodina


Nemůžete zakládat nová témata v tomto fóru
Nemůžete odpovídat v tomto fóru
Nemůžete upravovat své příspěvky v tomto fóru
Nemůžete mazat své příspěvky v tomto fóru
Nemůžete přikládat soubory v tomto fóru









StahovaniZaSMS Pizza Modena MP3 free download