fastshare
S tebou mě baví svět (1982)
Vypnout statistiky
KATEGORIEPOSLEDNÍ PŘÍSPĚVKYPOSLEDNÍ OZNÁMENÍSTATISTIKY UŽIVATELE
Nick: Anonymous
Příspěvků: 3361
Hodnost: Warman
Varování: 0
---
Právě je 16 lis 2018, 02:09





Všechny časy jsou v UTC + 1 hodina


Pravidla fóra







Odeslat nové téma Odpovědět na téma  [ Příspěvků: 7 ] 
 S tebou mě baví svět (1982) 
Autor Zpráva
Příspěvek Re: S tebou mě baví svět (1982)

S tebou mě baví svět (1982)
DVD Rip - AC3

Re: S tebou mě baví svět (1982)

Jen registrovaní uživatelé mohou vidět odkazy v code. Přihlaste se nebo zaregistrujte ZDARMA.


Každoroční pánská jízda tří otců se vlivem razantního zásahu manželek stává něčím jako mateřskou školou v zimní přírodě. Ukáže se, že v jistých situacích jsou otcové lepšími mámami nežli mámy samé, což platí hlavně tehdy, když mámy nejsou v dohledu. Jejich výchovné metody jsou velmi svérázné a vyvolávají plno zmatků a úsměvných situací...

Komedie / Rodinný
Československo, 1982, 82 min
Režie: Marie Poledňáková
Hrají: Július Satinský, Václav Postránecký, Pavel Nový, Jana Šulcová, Eliška Balzerová, Zdena Studenková, Zuzana Githeisová, Marta Buchtíková, Václav Korda, Cyril Křupala, Lukáš Pelánek, Marek Dvořák, Květa Fialová, Jan Faltýnek, Viktor Maurer

Jen registrovaní uživatelé mohou vidět odkazy v code. Přihlaste se nebo zaregistrujte ZDARMA.


Re: S tebou mě baví svět (1982)
Jen registrovaní uživatelé mohou vidět odkazy v code. Přihlaste se nebo zaregistrujte ZDARMA.

Re: S tebou mě baví svět (1982)
Jen registrovaní uživatelé mohou vidět odkazy v code. Přihlaste se nebo zaregistrujte ZDARMA.

Re: S tebou mě baví svět (1982)
Jen registrovaní uživatelé mohou vidět odkazy v code. Přihlaste se nebo zaregistrujte ZDARMA.

Re: S tebou mě baví svět (1982)
Jen registrovaní uživatelé mohou vidět odkazy v code. Přihlaste se nebo zaregistrujte ZDARMA.

Re: S tebou mě baví svět (1982)
Jen registrovaní uživatelé mohou vidět odkazy v code. Přihlaste se nebo zaregistrujte ZDARMA.

Re: S tebou mě baví svět (1982)
Jen registrovaní uživatelé mohou vidět odkazy v code. Přihlaste se nebo zaregistrujte ZDARMA.


04 lis 2011, 20:46
Master Sergant
Master Sergant

Registrován: 22 črc 2011, 14:56
Příspěvky: 129
Příspěvek Re: S tebou mě baví svět (1982)

Re: S tebou mě baví svět (1982)
S Tebou Mě Baví Svět (1982) DVD Rip CZ

CZ film & CZ dabing! / 888 MB film! / Stahuj len 1 link (HellShare.com)!

Re: S tebou mě baví svět (1982)
Re: S tebou mě baví svět (1982)

Re: S tebou mě baví svět (1982)
Jen registrovaní uživatelé mohou vidět odkazy v code. Přihlaste se nebo zaregistrujte ZDARMA.


Re: S tebou mě baví svět (1982)

Citace:
.::MediaInfo::.

Formát : AVI
Formát/Info : Audio Video Interleave
Veľkosť súboru : 888 MiB
Trvanie : 1h 22mn
Celkový dátový tok : 1 503 Kbps
Názov filmu : S TEBOU ME BAVI SVET.Title1.DVDRip
Použitý software : Lavf52.17.0
/Názov : S TEBOU ME BAVI SVET

Video
ID : 0
Formát : MPEG-4 Visual
Profil formátu : [email protected]
Format_Settings_BVOP/String : Nie
Format_Settings_QPel/String : Nie
Format_Settings_GMC/String : 0 warppoint
Format_Settings_Matrix/String : Default (H.263)
CodecID : XVID
/ : XviD
Trvanie : 1h 22mn
Dátový tok : 1 298 Kbps
Šírka : 640pixely
Výška : 494pixely
Pomer strán : 1,296
Frekvencia snímok : 25,000snímok/sek.
ColorSpace : YUV
ChromaSubsampling : 4:2:0
BitDepth/String : 8 bits
ScanType/String : Progressive
Bitov/(Bod*Snímka) : 0.164
StreamSize/String : 767 MiB (86%)
Enkódoval : XviD 1.1.2 (UTC 2006-11-01)

Audio
ID : 1
Formát : MPEG Audio
Format_Version : Version 1
Profil formátu : Layer 3
Režim : Joint stereo
Format_Settings_ModeExtension : MS Stereo
CodecID : 55
/ : MP3
Trvanie : 1h 22mn
Režim dátového toku : Konštantný dátový tok
Dátový tok : 192 Kbps
Kanál(y) : 2 kanály
Sampling rate : 48,0 KHz
StreamSize/String : 113 MiB (13%)
Interleave_Duration/String : 24 ms (0.60 video frames)


Re: S tebou mě baví svět (1982)
Re: S tebou mě baví svět (1982)


Re: S tebou mě baví svět (1982)
Re: S tebou mě baví svět (1982)
Jen registrovaní uživatelé mohou vidět odkazy v code. Přihlaste se nebo zaregistrujte ZDARMA.


Re: S tebou mě baví svět (1982)


Re: S tebou mě baví svět (1982)
Citace:
AVI súbor!
S radosťou pre Vás nahrál pista11!
Ďakujem poteší ;)


16 pro 2011, 23:38
Profil
Příspěvek Re: S tebou mě baví svět (1982)

S tebou mě baví svět (1982)
DVD Rip - AC3



Re: S tebou mě baví svět (1982)

Re: S tebou mě baví svět (1982)

Každoroční pánská jízda tří otců se vlivem razantního zásahu manželek stává něčím jako mateřskou školou v zimní přírodě. Ukáže se, že v jistých situacích jsou otcové lepšími mámami nežli mámy samé, což platí hlavně tehdy, když mámy nejsou v dohledu. Jejich výchovné metody jsou velmi svérázné a vyvolávají plno zmatků a úsměvných situací...

Komedie / Rodinný
Československo, 1982, 82 min
Režie: Marie Poledňáková
Hrají: Július Satinský, Václav Postránecký, Pavel Nový, Jana Šulcová, Eliška Balzerová, Zdena Studenková, Zuzana Githeisová, Marta Buchtíková, Václav Korda, Cyril Křupala, Lukáš Pelánek, Marek Dvořák, Květa Fialová, Jan Faltýnek, Viktor Maurer


Jen registrovaní uživatelé mohou vidět odkazy v code. Přihlaste se nebo zaregistrujte ZDARMA.


Format : AVI
Format/Info : Audio Video Interleave
Format profile : OpenDML
File size : 1.41 GiB
Duration : 1h 22mn
Overall bit rate : 2 445 Kbps
Movie name : S.tebou.me.bavi.svet.rip.darkemptiness.Title1.DVDRip
Writing application : Lavf52.78.4
Original source form/Name : S.tebou.me.bavi.svet.rip.darkemptiness

Video
ID : 0
Format : MPEG-4 Visual
Format profile : Advanced [email protected]
Format settings, BVOP : 2
Format settings, QPel : No
Format settings, GMC : No warppoints
Format settings, Matrix : Default (H.263)
Muxing mode : Packed bitstream
Codec ID : XVID
Codec ID/Hint : XviD
Duration : 1h 22mn
Bit rate : 1 985 Kbps
Width : 720 pixels
Height : 552 pixels
Display aspect ratio : 4:3
Frame rate : 25.000 fps
Color space : YUV
Chroma subsampling : 4:2:0
Bit depth : 8 bits
Scan type : Progressive
Compression mode : Lossy
Bits/(Pixel*Frame) : 0.200
Stream size : 1.15 GiB (81%)
Writing library : XviD 1.2.1 (UTC 2008-12-04)

Audio
ID : 1
Format : AC-3
Format/Info : Audio Coding 3
Mode extension : CM (complete main)
Codec ID : 2000
Duration : 1h 22mn
Bit rate mode : Constant
Bit rate : 448 Kbps
Channel(s) : 6 channels
Channel positions : Front: L C R, Side: L R, LFE
Sampling rate : 48.0 KHz
Bit depth : 16 bits
Compression mode : Lossy
Stream size : 265 MiB (18%)
Alignment : Aligned on interleaves
Interleave, duration : 32 ms (0.80 video frame)
Interleave, preload duration : 32 ms






Re: S tebou mě baví svět (1982)


Jen registrovaní uživatelé mohou vidět odkazy v code. Přihlaste se nebo zaregistrujte ZDARMA.




Re: S tebou mě baví svět (1982)



Jen registrovaní uživatelé mohou vidět odkazy v code. Přihlaste se nebo zaregistrujte ZDARMA.



.


30 pro 2011, 14:51
Colonel 3 rd class
Colonel 3 rd class
Uživatelský avatar

Registrován: 18 kvě 2009, 19:54
Příspěvky: 499
Příspěvek Re: S tebou mě baví svět (1982)

S tebou mě baví svět (1982)
DVD-Rip


Každoroční pánská jízda tří otců se vlivem razantního zásahu manželek stává něčím jako mateřskou školou v zimní přírodě. Ukáže se, že v jistých situacích jsou otcové lepšími mámami nežli mámy samé, což platí hlavně tehdy, když mámy nejsou v dohledu. Jejich výchovné metody jsou velmi svérázné a vyvolávají plno zmatků a úsměvných situací....

Jen registrovaní uživatelé mohou vidět odkazy v code. Přihlaste se nebo zaregistrujte ZDARMA.


Kvalita

Re: S tebou mě baví svět (1982)

Download

share-rapid
Jen registrovaní uživatelé mohou vidět odkazy v code. Přihlaste se nebo zaregistrujte ZDARMA.

fastshare
Jen registrovaní uživatelé mohou vidět odkazy v code. Přihlaste se nebo zaregistrujte ZDARMA.
Hledej náhradní

_________________
Mé DVD uploady jsou čisté kopie originálů, bez komprese.


25 dub 2013, 04:30
Profil
Lieutenant
Lieutenant

Registrován: 10 srp 2008, 15:06
Příspěvky: 224
Příspěvek Re: S tebou mě baví svět (1982)

S tebou mě baví svět


Komedie / Rodinný
Československo, 1982, 82 min

Július Satinský, Václav Postránecký, Pavel Nový, Jana Šulcová, Eliška Balzerová, Zdena Studenková, Zuzana Githeisová, Marta Buchtíková, Václav Korda, Cyril Křupala, Lukáš Pelánek, Marek Dvořák, Květa Fialová, Jan Faltýnek, Viktor Maurer, Magda Křížková-Šebestová

Re: S tebou mě baví svět (1982)

Jen registrovaní uživatelé mohou vidět odkazy v code. Přihlaste se nebo zaregistrujte ZDARMA.



Fastshare.cz

Download+Informácie o súbore

Jen registrovaní uživatelé mohou vidět odkazy v code. Přihlaste se nebo zaregistrujte ZDARMA.


S tebou mě baví svět.avi (1743 MB)
Audio: 6 channels | 448 Kbps Constant
Video: 720×540px – 4 | DivX 5 (AVI) | 2 495 Kbps | 25.000 fps


Bez hesla


09 led 2014, 20:25
Profil
Corporal
Corporal

Registrován: 15 črc 2011, 14:28
Příspěvky: 73
Příspěvek Re: S tebou mě baví svět (1982)

S TEBOU MĚ BAVÍ SVET (1982)

Re: S tebou mě baví svět (1982)

__.__
Jen registrovaní uživatelé mohou vidět odkazy v code. Přihlaste se nebo zaregistrujte ZDARMA.


__.__
Jen registrovaní uživatelé mohou vidět odkazy v code. Přihlaste se nebo zaregistrujte ZDARMA.


)..(
Jen registrovaní uživatelé mohou vidět odkazy v code. Přihlaste se nebo zaregistrujte ZDARMA.

Jen registrovaní uživatelé mohou vidět odkazy v code. Přihlaste se nebo zaregistrujte ZDARMA.

Jen registrovaní uživatelé mohou vidět odkazy v code. Přihlaste se nebo zaregistrujte ZDARMA.

Jen registrovaní uživatelé mohou vidět odkazy v code. Přihlaste se nebo zaregistrujte ZDARMA.


24 pro 2017, 10:42
Profil
Colonel
Colonel

Registrován: 30 pro 2007, 17:16
Příspěvky: 362
Příspěvek Re: S tebou mě baví svět (1982)

S tebou mě baví svět (1982)
Video/Zdroj: HDTVRip 1080p

Re: S tebou mě baví svět (1982)

CSFD / IMDB
Jen registrovaní uživatelé mohou vidět odkazy v code. Přihlaste se nebo zaregistrujte ZDARMA.


INFO
Citace:
Format : AVI
Format profile : OpenDML
File size : 3.01 GiB
Duration : 1 h 22 min
Overall bit rate : 5 210 kb/s

Video
Format : AVC
Format profile : [email protected]
Codec ID : H264
Duration : 1 h 22 min
Bit rate : 5 000 kb/s
Width : 1 920 pixels
Height : 1 080 pixels
Display aspect ratio : 16:9
Frame rate mode : Variable
Frame rate : 25.000 FPS
Color space : YUV
Chroma subsampling : 4:2:0
Bit depth : 8 bits
Scan type : Progressive
Bits/(Pixel*Frame) : 0.096
Stream size : 2.87 GiB (96%)
Writing library : x264 core 129

Audio
Format : AC-3
Duration : 1 h 22 min
Bit rate mode : Constant
Bit rate : 224 kb/s
Channel(s) : 2 channels
Channel positions : Front: L R
Sampling rate : 48.0 kHz
Frame rate : 31.250 FPS (1536 SPF)
Bit depth : 16 bits
Compression mode : Lossy
Stream size : 132 MiB (4%)
Alignment : Aligned on interleaves
Interleave, duration : 32 ms (0.80 video frame)
Service kind : Complete Main


Fastshare
Jen registrovaní uživatelé mohou vidět odkazy v code. Přihlaste se nebo zaregistrujte ZDARMA.


14 zář 2018, 14:04
Profil
Zobrazit příspěvky za předchozí:  Seřadit podle  
Odeslat nové téma Odpovědět na téma  [ Příspěvků: 7 ] 

Všechny časy jsou v UTC + 1 hodina


Nemůžete zakládat nová témata v tomto fóru
Nemůžete odpovídat v tomto fóru
Nemůžete upravovat své příspěvky v tomto fóru
Nemůžete mazat své příspěvky v tomto fóru
Nemůžete přikládat soubory v tomto fóru









StahovaniZaSMS Pizza Modena MP3 free download