fastshare
Machete (2010)
Vypnout statistiky
KATEGORIEPOSLEDNÍ PŘÍSPĚVKYPOSLEDNÍ OZNÁMENÍSTATISTIKY UŽIVATELE
Nick: Anonymous
Příspěvků: 3359
Hodnost: Warman
Varování: 0
---
Právě je 15 pro 2018, 08:00





Všechny časy jsou v UTC + 1 hodina


Pravidla fóra







Odeslat nové téma Odpovědět na téma  [ Příspěvků: 11 ] 
 Machete (2010) 
Autor Zpráva
Colonel 4 th class
Colonel 4 th class

Registrován: 24 srp 2008, 13:48
Příspěvky: 594
Příspěvek Machete (2010)

Machete (2010)

Machete (2010)

Machete.2010.BRRip.XviD.CZ-LEADERs
Machete (2010)
Jen registrovaní uživatelé mohou vidět odkazy v code. Přihlaste se nebo zaregistrujte ZDARMA.


http://www.csfd.cz/film/257725/

Forced:
Machete (2010)
Jen registrovaní uživatelé mohou vidět odkazy v code. Přihlaste se nebo zaregistrujte ZDARMA.


Machete (2010)
Jen registrovaní uživatelé mohou vidět odkazy v code. Přihlaste se nebo zaregistrujte ZDARMA.



Machete (2010)
Machete.2010.480p.BRRip.XviD.CZ-LEADERs
Machete (2010)
Jen registrovaní uživatelé mohou vidět odkazy v code. Přihlaste se nebo zaregistrujte ZDARMA.


Forced:
Machete (2010)
Jen registrovaní uživatelé mohou vidět odkazy v code. Přihlaste se nebo zaregistrujte ZDARMA.


Machete (2010)
Jen registrovaní uživatelé mohou vidět odkazy v code. Přihlaste se nebo zaregistrujte ZDARMA.


Machete (2010)
Jen registrovaní uživatelé mohou vidět odkazy v code. Přihlaste se nebo zaregistrujte ZDARMA.


Naposledy upravil rosa1 dne 07 čer 2012, 11:14, celkově upraveno 3
Smazány nefunkční odkazy a obrázky


29 čer 2011, 03:29
Profil
Uploader
Uploader

Registrován: 02 dub 2007, 08:00
Příspěvky: 413
Příspěvek Re: Machete (2010)

Machete.2010.480p.BRRip.XviD.CZ-LEADERs

Re: Machete (2010)

http://www.csfd.cz/film/257725

Format : AVI
Format/Info : Audio Video Interleave
File size : 1.39 GiB
Duration : 1h 44mn
Overall bit rate : 1 901 Kbps
Writing application : VirtualDubMod 1.5.10.2 (build 2540/release)
Writing library : VirtualDubMod build 2540/release

Video
ID : 0
Format : MPEG-4 Visual
Format profile : Advanced [email protected]
Format settings, BVOP : 1
Format settings, QPel : No
Format settings, GMC : No warppoints
Format settings, Matrix : Default (H.263)
Codec ID : XVID
Codec ID/Hint : XviD
Duration : 1h 44mn
Bit rate : 1 700 Kbps
Width : 720 pixels
Height : 384 pixels
Display aspect ratio : 1.875
Frame rate : 24.000 fps
Color space : YUV
Chroma subsampling : 4:2:0
Bit depth : 8 bits
Scan type : Progressive
Compression mode : Lossy
Bits/(Pixel*Frame) : 0.256
Stream size : 1.24 GiB (89%)
Writing library : XviD 1.2.1 (UTC 2008-12-04)

Audio
ID : 1
Format : AC-3
Format/Info : Audio Coding 3
Mode extension : CM (complete main)
Codec ID : 2000
Duration : 1h 44mn
Bit rate mode : Constant
Bit rate : 192 Kbps
Channel(s) : 2 channels
Channel positions : Front: L R
Sampling rate : 48.0 KHz
Bit depth : 16 bits
Compression mode : Lossy
Stream size : 144 MiB (10%)
Alignment : Split accross interleaves
Interleave, duration : 42 ms (1.00 video frame)
Interleave, preload duration : 500 ms

Jen registrovaní uživatelé mohou vidět odkazy v code. Přihlaste se nebo zaregistrujte ZDARMA.
No pass


29 čer 2011, 03:44
Profil
Colonel 5 th class
Colonel 5 th class
Uživatelský avatar

Registrován: 27 dub 2008, 13:14
Příspěvky: 651
Příspěvek Re: Machete (2010)

Názov: Machete (2010)
Release: Machete.2010.BRRip.XviD.CZ-LEADERs
Release: Machete.2010.480p.BRRip.XviD.CZ-LEADERs

Re: Machete (2010)

Re: Machete (2010)
Jen registrovaní uživatelé mohou vidět odkazy v code. Přihlaste se nebo zaregistrujte ZDARMA.


Re: Machete (2010)
    Dabing: Český
    Titulky: nie
    *********
    Žáner: Akční / Krimi / Thriller / Komedie
    Krajina: USA
    Rok: 2010
    *********
    Réžia: Robert Rodriguez, Ethan Maniquis
    Hrajú: Danny Trejo, Robert De Niro, Jessica Alba, Steven Seagal, Michelle Rodriguez, Jeff Fahey, Cheech Marin, Don Johnson, Shea Whigham, Lindsay Lohan, Daryl Sabara, Ara Celi, Tom Savini, Electra Avellan, Elise Avellan, Alicia Rachel Marek, Tito Larriva, Cheryl Chin, Nimród Antal

Release: Machete.2010.BRRip.XviD.CZ-LEADERs

Re: Machete (2010)
Jen registrovaní uživatelé mohou vidět odkazy v code. Přihlaste se nebo zaregistrujte ZDARMA.


Re: Machete (2010)
Jen registrovaní uživatelé mohou vidět odkazy v code. Přihlaste se nebo zaregistrujte ZDARMA.



=======================================================================
=======================================================================

Release: Machete.2010.480p.BRRip.XviD.CZ-LEADERs

Re: Machete (2010)
Jen registrovaní uživatelé mohou vidět odkazy v code. Přihlaste se nebo zaregistrujte ZDARMA.


Re: Machete (2010)
DELETED

Re: Machete (2010)


Naposledy upravil ladan dne 02 čer 2012, 02:01, celkově upraveno 2
Smazány nefunkční odkazy


29 čer 2011, 06:10
Profil
Warman
Warman
Uživatelský avatar

Registrován: 01 čer 2008, 18:16
Příspěvky: 1020
Bydliště: Hell
Příspěvek Re: Machete (2010)

Machete (2010)

Machete.2010.BRRip.XviD.CZ-majors

http://www.csfd.cz/film/257725
http://www.imdb.com/title/tt0985694

Jen registrovaní uživatelé mohou vidět odkazy v code. Přihlaste se nebo zaregistrujte ZDARMA.


Titulky CZ forced sú priložené.

Jen registrovaní uživatelé mohou vidět odkazy v code. Přihlaste se nebo zaregistrujte ZDARMA.



---------------------------------------------------------------------------------------------------------------------

Machete.2010.480p.BRRip.XviD.CZ-LEADERs

Jen registrovaní uživatelé mohou vidět odkazy v code. Přihlaste se nebo zaregistrujte ZDARMA.


Titulky CZ forced sú priložené.

Jen registrovaní uživatelé mohou vidět odkazy v code. Přihlaste se nebo zaregistrujte ZDARMA.

_________________
Prežívaj každý deň tak ako keby mal byť tvojim posledným, lebo jeden z nich bude posledným.


Naposledy upravil ladan dne 02 čer 2012, 02:06, celkově upraveno 1
Smazány nefunkční odkazy a obrázky


29 čer 2011, 06:35
Profil
Uploader
Uploader
Uživatelský avatar

Registrován: 16 led 2010, 03:36
Příspěvky: 792
Příspěvek Re: Machete (2010)

Machete (2010)

Re: Machete (2010)

Re: Machete (2010)
Re: Machete (2010)

Re: Machete (2010)
Jen registrovaní uživatelé mohou vidět odkazy v code. Přihlaste se nebo zaregistrujte ZDARMA.

Re: Machete (2010)

Akční / Krimi / Thriller / Komedie
USA, 2010, 105 min

Vypadal jako docela obyčejný dělník z ulice a byl ideálním kandidátem k tomu, aby na něj hodili vraždu. Ale ukázalo se, že je to Machete (Danny Trejo), legendární bývalý elitní agent, kterého se nevyplatí naštvat. Poté, co ho vyhlášený mexický drogový magnát Torrez (Steven Seagal) nechal v pustině polomrtvého, se mu podaří přežít a uprchne do Texasu, kde touží zmizet a uniknout své minulosti. Narazí tu ale na hustou síť korupce a podvodů, na jejímž konci se nachází zastřelený senátor (Robert de Niro) a Machete coby člověk, obviněný z jeho vraždy. Machete…


Jen registrovaní uživatelé mohou vidět odkazy v code. Přihlaste se nebo zaregistrujte ZDARMA.



Re: Machete (2010)

Re: Machete (2010)
Jen registrovaní uživatelé mohou vidět odkazy v code. Přihlaste se nebo zaregistrujte ZDARMA.

Re: Machete (2010)
Jen registrovaní uživatelé mohou vidět odkazy v code. Přihlaste se nebo zaregistrujte ZDARMA.

Re: Machete (2010)
Jen registrovaní uživatelé mohou vidět odkazy v code. Přihlaste se nebo zaregistrujte ZDARMA.

Re: Machete (2010)
Jen registrovaní uživatelé mohou vidět odkazy v code. Přihlaste se nebo zaregistrujte ZDARMA.

Re: Machete (2010)
Jen registrovaní uživatelé mohou vidět odkazy v code. Přihlaste se nebo zaregistrujte ZDARMA.

Re: Machete (2010)
Jen registrovaní uživatelé mohou vidět odkazy v code. Přihlaste se nebo zaregistrujte ZDARMA.


forced titulky

Jen registrovaní uživatelé mohou vidět odkazy v code. Přihlaste se nebo zaregistrujte ZDARMA.


    Návod na MADLINK:
    Po otvorení odkazu sa Vám zobrazí stránka MADLINK a po 5tich sekundách sa Vám v pravom hornom rohu zobrazí SKIP AD
    Stačí na to kliknúť a hneď Vás to presmeruje na daný súbor.

Re: Machete (2010)

Citace:
V prípade problému ma vždy kontaktuje cez SS/PM !!
Moje uploady sú VŽDY balené programom WinRAR !!
Moje uploady sú VŽDY bez hesla!!
Tlačítko ďakujem alebo iné poďakovanie vždy poteší !!
Za Power Uploaders pre Vás nahral Delfin !!!


Naposledy upravil Delfin29 dne 30 čer 2011, 20:18, celkově upraveno 1

29 čer 2011, 07:42
Profil
Army General
Army General

Registrován: 21 črc 2009, 11:51
Příspěvky: 932
Příspěvek Re: Machete (2010)

Machete / 2010
Re: Machete (2010)

http://www.csfd.cz/film/257725

Re: Machete (2010)
GENERAL BRRip
Citace:
Format : AVI
Format/Info : Audio Video Interleave
File size : 759 MiB
Duration : 1h 44mn
Overall bit rate : 1 011 Kbps
Writing application : VirtualDubMod 1.5.10.2 (build 2540/release)
Writing library : VirtualDubMod build 2540/release

Video
ID : 0
Format : MPEG-4 Visual
Format profile : Advanced [email protected]
Format settings, BVOP : 2
Format settings, QPel : No
Format settings, GMC : No warppoints
Format settings, Matrix : Default (H.263)
Codec ID : XVID
Codec ID/Hint : XviD
Duration : 1h 44mn
Bit rate : 809 Kbps
Width : 624 pixels
Height : 336 pixels
Display aspect ratio : 1.857
Frame rate : 23.976 fps
Color space : YUV
Chroma subsampling : 4:2:0
Bit depth : 8 bits
Scan type : Progressive
Compression mode : Lossy
Bits/(Pixel*Frame) : 0.161
Stream size : 608 MiB (80%)
Writing library : XviD 1.2.1 (UTC 2008-12-04)

Audio
ID : 1
Format : AC-3
Format/Info : Audio Coding 3
Mode extension : CM (complete main)
Codec ID : 2000
Duration : 1h 44mn
Bit rate mode : Constant
Bit rate : 192 Kbps
Channel(s) : 2 channels
Channel positions : Front: L R
Sampling rate : 48.0 KHz
Bit depth : 16 bits
Compression mode : Lossy
Stream size : 144 MiB (19%)
Alignment : Split accross interleaves
Interleave, duration : 42 ms (1.00 video frame)
Interleave, preload duration : 500 ms

Jen registrovaní uživatelé mohou vidět odkazy v code. Přihlaste se nebo zaregistrujte ZDARMA.


Re: Machete (2010)
GENERAL BRRip 480p
Citace:
Format : AVI
Format/Info : Audio Video Interleave
File size : 1.39 GiB
Duration : 1h 44mn
Overall bit rate : 1 901 Kbps
Writing application : VirtualDubMod 1.5.10.2 (build 2540/release)
Writing library : VirtualDubMod build 2540/release

Video
ID : 0
Format : MPEG-4 Visual
Format profile : Advanced [email protected]
Format settings, BVOP : 1
Format settings, QPel : No
Format settings, GMC : No warppoints
Format settings, Matrix : Default (H.263)
Codec ID : XVID
Codec ID/Hint : XviD
Duration : 1h 44mn
Bit rate : 1 700 Kbps
Width : 720 pixels
Height : 384 pixels
Display aspect ratio : 1.875
Frame rate : 24.000 fps
Color space : YUV
Chroma subsampling : 4:2:0
Bit depth : 8 bits
Scan type : Progressive
Compression mode : Lossy
Bits/(Pixel*Frame) : 0.256
Stream size : 1.24 GiB (89%)
Writing library : XviD 1.2.1 (UTC 2008-12-04)

Audio
ID : 1
Format : AC-3
Format/Info : Audio Coding 3
Mode extension : CM (complete main)
Codec ID : 2000
Duration : 1h 44mn
Bit rate mode : Constant
Bit rate : 192 Kbps
Channel(s) : 2 channels
Channel positions : Front: L R
Sampling rate : 48.0 KHz
Bit depth : 16 bits
Compression mode : Lossy
Stream size : 144 MiB (10%)
Alignment : Split accross interleaves
Interleave, duration : 42 ms (1.00 video frame)
Interleave, preload duration : 500 ms

DELETED


Naposledy upravil ladan dne 02 čer 2012, 02:14, celkově upraveno 1
Smazány nefunkční odkazy a obrázky


29 čer 2011, 08:40
Profil
Colonel 4 th class
Colonel 4 th class

Registrován: 10 dub 2011, 09:31
Příspěvky: 549
Příspěvek Re: Machete (2010)

Machete.2010.BRRip.XviD.CZ-LEADERs
Machete (2010)

Re: Machete (2010)

Re: Machete (2010)
Jen registrovaní uživatelé mohou vidět odkazy v code. Přihlaste se nebo zaregistrujte ZDARMA.

Jen registrovaní uživatelé mohou vidět odkazy v code. Přihlaste se nebo zaregistrujte ZDARMA.


Re: Machete (2010)
Jen registrovaní uživatelé mohou vidět odkazy v code. Přihlaste se nebo zaregistrujte ZDARMA.

Jen registrovaní uživatelé mohou vidět odkazy v code. Přihlaste se nebo zaregistrujte ZDARMA.

Jen registrovaní uživatelé mohou vidět odkazy v code. Přihlaste se nebo zaregistrujte ZDARMA.

Jen registrovaní uživatelé mohou vidět odkazy v code. Přihlaste se nebo zaregistrujte ZDARMA.

Jen registrovaní uživatelé mohou vidět odkazy v code. Přihlaste se nebo zaregistrujte ZDARMA.

Jen registrovaní uživatelé mohou vidět odkazy v code. Přihlaste se nebo zaregistrujte ZDARMA.

Jen registrovaní uživatelé mohou vidět odkazy v code. Přihlaste se nebo zaregistrujte ZDARMA.


Re: Machete (2010)

********************************************************************************************
Machete.2010.480p.BRRip.XviD.CZ-LEADERs

Re: Machete (2010)
Jen registrovaní uživatelé mohou vidět odkazy v code. Přihlaste se nebo zaregistrujte ZDARMA.


Re: Machete (2010)
Jen registrovaní uživatelé mohou vidět odkazy v code. Přihlaste se nebo zaregistrujte ZDARMA.

Jen registrovaní uživatelé mohou vidět odkazy v code. Přihlaste se nebo zaregistrujte ZDARMA.

Jen registrovaní uživatelé mohou vidět odkazy v code. Přihlaste se nebo zaregistrujte ZDARMA.

Jen registrovaní uživatelé mohou vidět odkazy v code. Přihlaste se nebo zaregistrujte ZDARMA.

Jen registrovaní uživatelé mohou vidět odkazy v code. Přihlaste se nebo zaregistrujte ZDARMA.

Jen registrovaní uživatelé mohou vidět odkazy v code. Přihlaste se nebo zaregistrujte ZDARMA.

Jen registrovaní uživatelé mohou vidět odkazy v code. Přihlaste se nebo zaregistrujte ZDARMA.


Re: Machete (2010)


29 čer 2011, 10:55
Profil
Příspěvek Re: Machete (2010)

Machete (2010)

Re: Machete (2010)Re: Machete (2010)

Jen registrovaní uživatelé mohou vidět odkazy v code. Přihlaste se nebo zaregistrujte ZDARMA.


Vypadal jako docela obyčejný dělník z ulice a byl ideálním kandidátem k tomu, aby na něj hodili vraždu. Ale ukázalo se, že je to Machete (Danny Trejo), legendární bývalý elitní agent, kterého se nevyplatí naštvat. Poté, co ho vyhlášený mexický drogový magnát Torrez (Steven Seagal) nechal v pustině polomrtvého, se mu podaří přežít a uprchne do Texasu, kde touží zmizet a uniknout své minulosti. Narazí tu ale na hustou síť korupce a podvodů, na jejímž konci se nachází zastřelený senátor (Robert de Niro) a Machete coby člověk, obviněný z jeho vraždy. Machete se vydává očistit své jméno a odhalit zákeřné a rozsáhlé spiknutí. V cestě mu ale stojí Booth (Jeff Fahey) – nemilosrdný podnikatel, který má na své výplatní listině slušnou zásobu zabijáků, Von (Don Johnson) – šílený strážce hranice, který velí menší armádě, a Santana Rivera (Jessica Alba) – překrásná imigrační úřednice, která neví, zda se má řídit zákonem či srdcem.

Akční / Krimi / Thriller / Komedie
USA, 2010
Režie: Robert Rodriguez, Ethan Maniquis
Hudba: John Debney, Robert Rodriguez
Hrají: Danny Trejo, Robert De Niro, Jessica Alba, Steven Seagal, Michelle Rodriguez, Jeff Fahey, Cheech Marin, Don Johnson, Shea Whigham, Lindsay Lohan, Daryl Sabara, Ara Celi, Tom Savini, Electra Avellan, Elise Avellan, Alicia Rachel Marek, Tito Larriva, Cheryl Chin, Nimród Antal

Forced titulky
Jen registrovaní uživatelé mohou vidět odkazy v code. Přihlaste se nebo zaregistrujte ZDARMA.


AVI - 01:44:59 - 758MB - BR Rip - Cz Dabing
Video: XVID 624x336 23.98fps [Stream 00]
Audio: Dolby AC3 48000Hz stereo 192Kbps [Stream 01]

Re: Machete (2010)
Jen registrovaní uživatelé mohou vidět odkazy v code. Přihlaste se nebo zaregistrujte ZDARMA.

Re: Machete (2010)
Jen registrovaní uživatelé mohou vidět odkazy v code. Přihlaste se nebo zaregistrujte ZDARMA.

Re: Machete (2010)
Jen registrovaní uživatelé mohou vidět odkazy v code. Přihlaste se nebo zaregistrujte ZDARMA.

Re: Machete (2010)
Jen registrovaní uživatelé mohou vidět odkazy v code. Přihlaste se nebo zaregistrujte ZDARMA.

Re: Machete (2010)
Jen registrovaní uživatelé mohou vidět odkazy v code. Přihlaste se nebo zaregistrujte ZDARMA.







AVI - 01:44:47 - 1390MB - BR Rip 480p - Cz Dabing
Video: XVID 720x384 24.00fps [Stream 00]
Audio: Dolby AC3 48000Hz stereo 192Kbps [Stream 01]

Re: Machete (2010)
Jen registrovaní uživatelé mohou vidět odkazy v code. Přihlaste se nebo zaregistrujte ZDARMA.

Re: Machete (2010)
Jen registrovaní uživatelé mohou vidět odkazy v code. Přihlaste se nebo zaregistrujte ZDARMA.

Re: Machete (2010)
Jen registrovaní uživatelé mohou vidět odkazy v code. Přihlaste se nebo zaregistrujte ZDARMA.

Re: Machete (2010)
Jen registrovaní uživatelé mohou vidět odkazy v code. Přihlaste se nebo zaregistrujte ZDARMA.



Forced titulky
Jen registrovaní uživatelé mohou vidět odkazy v code. Přihlaste se nebo zaregistrujte ZDARMA.


29 čer 2011, 18:56
Colonel 4 th class
Colonel 4 th class

Registrován: 10 dub 2011, 09:31
Příspěvky: 549
Příspěvek Machete (2010)

Machete (2010)

Machete.2010.480p.BRRip.XviD.CZ-LEADERs

Machete (2010)

Machete (2010)
Jen registrovaní uživatelé mohou vidět odkazy v code. Přihlaste se nebo zaregistrujte ZDARMA.

Jen registrovaní uživatelé mohou vidět odkazy v code. Přihlaste se nebo zaregistrujte ZDARMA.


Machete (2010)
Jen registrovaní uživatelé mohou vidět odkazy v code. Přihlaste se nebo zaregistrujte ZDARMA.

Jen registrovaní uživatelé mohou vidět odkazy v code. Přihlaste se nebo zaregistrujte ZDARMA.

Machete (2010)


Naposledy upravil ladan dne 05 říj 2013, 14:37, celkově upraveno 1
Smazány nefunkční odkazy


12 črc 2011, 10:23
Profil
Warman
Warman

Registrován: 16 črc 2011, 10:59
Příspěvky: 1169
Příspěvek Re: Machete (2010)

Machete (2010)

Machete.2010.BDRip.XviD.AC3.CZ-Starcross

Re: Machete (2010)

Jen registrovaní uživatelé mohou vidět odkazy v code. Přihlaste se nebo zaregistrujte ZDARMA.

Jazyk: 5.1 Cz
Titulky: Cz-forced
Kdy a kde: USA, 2010
Délka: 104 min.
Žánr: Akční / Thriller / Komedie

704x384; 16:9
XviD, Celkový BitRate: 2 651 Kbps
AC3, 6 kanály/448 Kbps
23.976 fps, 48 Khz
1,94 GB


Re: Machete (2010)

Vypadal jako docela obyčejný dělník z ulice a byl ideálním kandidátem k tomu, aby na něj hodili vraždu. Ale ukázalo se, že je to Machete (Danny Trejo), legendární bývalý elitní agent, kterého se nevyplatí naštvat. Poté, co ho vyhlášený mexický drogový magnát Torrez (Steven Seagal) nechal v pustině polomrtvého, se mu podaří přežít a uprchne do Texasu, kde touží zmizet a uniknout své minulosti. Narazí tu ale na hustou síť korupce a podvodů, na jejímž konci se nachází zastřelený senátor (Robert de Niro) a Machete coby člověk, obviněný z jeho vraždy. Machete se vydává očistit své jméno a odhalit zákeřné a rozsáhlé spiknutí...

share-rapid:
Jen registrovaní uživatelé mohou vidět odkazy v code. Přihlaste se nebo zaregistrujte ZDARMA.

euroshare:
Jen registrovaní uživatelé mohou vidět odkazy v code. Přihlaste se nebo zaregistrujte ZDARMA.

fastshare:
Jen registrovaní uživatelé mohou vidět odkazy v code. Přihlaste se nebo zaregistrujte ZDARMA.

V případě potřeby udělám re-upload


03 říj 2013, 19:42
Profil
Zobrazit příspěvky za předchozí:  Seřadit podle  
Odeslat nové téma Odpovědět na téma  [ Příspěvků: 11 ] 

Všechny časy jsou v UTC + 1 hodina


Nemůžete zakládat nová témata v tomto fóru
Nemůžete odpovídat v tomto fóru
Nemůžete upravovat své příspěvky v tomto fóru
Nemůžete mazat své příspěvky v tomto fóru
Nemůžete přikládat soubory v tomto fóru









StahovaniZaSMS Pizza Modena MP3 free download