fastshare
Ľadové peklo / Ledová apokalypsa / Ice (2011)
Vypnout statistiky
KATEGORIEPOSLEDNÍ PŘÍSPĚVKYPOSLEDNÍ OZNÁMENÍSTATISTIKY UŽIVATELE
Nick: Anonymous
Příspěvků: 3361
Hodnost: Warman
Varování: 0
---
Právě je 16 říj 2018, 23:50





Všechny časy jsou v UTC + 1 hodina


Pravidla fóra







Odeslat nové téma Odpovědět na téma  [ Příspěvků: 5 ] 
 Ľadové peklo / Ledová apokalypsa / Ice (2011) 
Autor Zpráva
Captain
Captain

Registrován: 17 zář 2011, 14:32
Příspěvky: 294
Příspěvek Ľadové peklo / Ledová apokalypsa / Ice (2011)

Ľadové_peklo / Ledová_apokalypsa / Ice_2011_1DIL_TVRip-CZ

Ľadové peklo / Ledová apokalypsa / Ice (2011)

Ľadové peklo / Ledová apokalypsa / Ice (2011)
Jen registrovaní uživatelé mohou vidět odkazy v code. Přihlaste se nebo zaregistrujte ZDARMA.

Citace:
Akční
Velká Británie / Nový Zéland, 2011
Režie:
Nick Copus
Hrají:
Richard Roxburgh, Frances O'Connor, Nathaniel Lees, Tom Hern, Stephen Moyer, Claire Forlani, Sam Neill, Ben Cross, Simon Callow, Patrick Bergin, Werner Daehn, Gareth Reeves

Místo abychom se starali o náš svět, starali jsme se jen o sebe. V roce 2020 však nastal čas začít splácet dluh. Globální oteplování změnilo podobu světa, miliony lidí z nejhůře postižených oblastí se vydaly hledat nové místo k životu a bohaté státy musely uzavřít hranice. Svět, který je stále závislý na ropě, zasáhla energetická krize. Zoufalé lidstvo se obrátilo k polárním oblastem, kde se možná pod věčným ledem nacházejí obrovské zdroje nerostného bohatství. Vědec Thom Archer, který společně s přítelem Benem Johnsonem získal s nasazením vlastního života znepokojující důkazy o tom, že průzkum a těžba v ledové krajině mohou mít katastrofální následky. Pokusili se přesvědčit Arktický svaz, aby neprodlužoval licenci k vrtům nadnárodní energetické korporaci Halo, kterou řídí miliardář Anthony Kavanagh. Varuje zasedání, že vrty v oblasti grónských ledovců urychlují už tak nebezpečně rychlé tání, jehož vinou se do oceánu dostává obrovské množství sladké vody. Sarah Feech, zastupující Halo, však jeho argumentaci vyvrátí a dosáhne tak prodloužení licence. Naštvaný vědec chce dát výpověď, jenže právě v tu chvíli mu volá Ben, že objevil rozhodující důkazy. Thom se za ním vydá na vrtnou plošinu a současně tam odjíždí také Sarah, která má zajistit hladký průběh prací po nehodě, při níž bylo zraněno několik vrtařů. Znepokojená žena však zjistí, že situace je mnohem vážnější než se zdálo a když zjistí, že zranění dělníci byli opařeni poté, co vrt v hloubce tři sta metrů narušil termální zřídlo, pokusí se varovat Kavanagha. Ten však nedbá a trvá na pokračování vrtu. Vzápětí Sarah objeví v ledové pustině Benovu mrtvolu a společně s Thomem zjistí, že byl zavražděn poté, co objevil rozhodující důkaz podporující Thomovy varovné teorie. Než stačí dvojice cokoli podniknout, někdo se je pokusí zabít. A zatímco Thomova rodina je v Anglii při bezohledném policejním zásahu zatčena, Thom se Sarah se ocitají ve smrtící pasti, kde musejí čelit mrazu, ledu, vařící vodě a zákeřnému útoku záhadného vraha.

Ľadové peklo / Ledová apokalypsa / Ice (2011)
Citace:
Format : AVI
Format/Info : Audio Video Interleave
File size : 972 MiB
Duration : 1h 28mn
Overall bit rate : 1 537 Kbps

Video
ID : 0
Format : MPEG-4 Visual
Format profile : Advanced [email protected]
Format settings, BVOP : No
Format settings, QPel : No
Format settings, GMC : No warppoints
Format settings, Matrix : Default (MPEG)
Codec ID : XVID
Codec ID/Hint : XviD
Duration : 1h 28mn
Bit rate : 1 338 Kbps
Width : 1 280 pixels
Height : 720 pixels
Display aspect ratio : 16:9
Frame rate : 25.000 fps
Color space : YUV
Chroma subsampling : 4:2:0
Bit depth : 8 bits
Scan type : Progressive
Compression mode : Lossy
Bits/(Pixel*Frame) : 0.058
Stream size : 846 MiB (87%)
Writing library : XviD 1.2.1 (UTC 2008-12-04)

Audio
ID : 1
Format : MPEG Audio
Format version : Version 1
Format profile : Layer 3
Codec ID : 55
Codec ID/Hint : MP3
Duration : 1h 28mn
Bit rate mode : Constant
Bit rate : 192 Kbps
Channel(s) : 2 channels
Sampling rate : 44.1 KHz
Compression mode : Lossy
Stream size : 121 MiB (12%)
Alignment : Split accross interleaves
Interleave, duration : 80 ms (2.00 video frames)
Writing library : LAMELAME_MAJOR_VERSI


Ľadové peklo / Ledová apokalypsa / Ice (2011)

Ľadové peklo / Ledová apokalypsa / Ice (2011)
Jen registrovaní uživatelé mohou vidět odkazy v code. Přihlaste se nebo zaregistrujte ZDARMA.


Ľadové peklo / Ledová apokalypsa / Ice (2011)

Ľadové peklo / Ledová apokalypsa / Ice (2011)
Jen registrovaní uživatelé mohou vidět odkazy v code. Přihlaste se nebo zaregistrujte ZDARMA.


Ľadové peklo / Ledová apokalypsa / Ice (2011)

Ľadové peklo / Ledová apokalypsa / Ice (2011)

Jen registrovaní uživatelé mohou vidět odkazy v code. Přihlaste se nebo zaregistrujte ZDARMA.


Ľadové peklo / Ledová apokalypsa / Ice (2011)

Ľadové peklo / Ledová apokalypsa / Ice (2011)

Jen registrovaní uživatelé mohou vidět odkazy v code. Přihlaste se nebo zaregistrujte ZDARMA.



2..DIL.................................................................................

Ľadové peklo / Ledová apokalypsa / Ice (2011)
Citace:
Format : AVI
Format/Info : Audio Video Interleave
File size : 904 MiB
Duration : 1h 25mn
Overall bit rate mode : Variable
Overall bit rate : 1 471 Kbps

Video
ID : 0
Format : MPEG-4 Visual
Format profile : Advanced [email protected]
Format settings, BVOP : 2
Format settings, QPel : No
Format settings, GMC : No warppoints
Format settings, Matrix : Default (H.263)
Codec ID : XVID
Codec ID/Hint : XviD
Duration : 1h 25mn
Bit rate : 1 334 Kbps
Width : 720 pixels
Height : 420 pixels
Display aspect ratio : 16:9
Frame rate : 25.000 fps
Color space : YUV
Chroma subsampling : 4:2:0
Bit depth : 8 bits
Scan type : Progressive
Compression mode : Lossy
Bits/(Pixel*Frame) : 0.176
Stream size : 820 MiB (91%)
Writing library : XviD 64

Audio
ID : 1
Format : MPEG Audio
Format version : Version 1
Format profile : Layer 3
Codec ID : 55
Codec ID/Hint : MP3
Duration : 1h 25mn
Bit rate mode : Variable
Bit rate : 128 Kbps
Channel(s) : 2 channels
Sampling rate : 48.0 KHz
Compression mode : Lossy
Stream size : 78.7 MiB (9%)
Alignment : Aligned on interleaves
Interleave, duration : 40 ms (1.00 video frame)


Ľadové peklo / Ledová apokalypsa / Ice (2011)

Ľadové peklo / Ledová apokalypsa / Ice (2011)
Jen registrovaní uživatelé mohou vidět odkazy v code. Přihlaste se nebo zaregistrujte ZDARMA.


Ľadové peklo / Ledová apokalypsa / Ice (2011)

Ľadové peklo / Ledová apokalypsa / Ice (2011)
Jen registrovaní uživatelé mohou vidět odkazy v code. Přihlaste se nebo zaregistrujte ZDARMA.


Ľadové peklo / Ledová apokalypsa / Ice (2011)

Ľadové peklo / Ledová apokalypsa / Ice (2011)

Jen registrovaní uživatelé mohou vidět odkazy v code. Přihlaste se nebo zaregistrujte ZDARMA.


Ľadové peklo / Ledová apokalypsa / Ice (2011)

Ľadové peklo / Ledová apokalypsa / Ice (2011)

Jen registrovaní uživatelé mohou vidět odkazy v code. Přihlaste se nebo zaregistrujte ZDARMA.


Ľadové peklo / Ledová apokalypsa / Ice (2011)


Naposledy upravil kyd911 dne 06 led 2012, 22:52, celkově upraveno 1

04 led 2012, 08:57
Profil
Warman
Warman
Uživatelský avatar

Registrován: 08 úno 2010, 10:54
Příspěvky: 1332
Příspěvek Re: Ľadové peklo / Ledová apokalypsa / Ice (2011)

Ľadové peklo / Ledová apokalypsa / Ice (2011)
Rel:Ledová apokalypsa 2011_tvripCZ

Re: Ľadové peklo / Ledová apokalypsa / Ice (2011)
Jazyk:CZ
Akční
Velká Británie / Nový Zéland, 2011, 2x90 min
Režie:Nick Copus
Hrají:Richard Roxburgh, Frances O'Connor, Nathaniel Lees, Tom Hern, Stephen Moyer, Claire Forlani, Sam Neill, Ben Cross, Simon Callow, Patrick Bergin, Werner Daehn, Gareth Reeves
Odkaz
Jen registrovaní uživatelé mohou vidět odkazy v code. Přihlaste se nebo zaregistrujte ZDARMA.

Obsah
Místo abychom se starali o náš svět, starali jsme se jen o sebe. V roce 2020 však nastal čas začít splácet dluh. Globální oteplování změnilo podobu světa, miliony lidí z nejhůře postižených oblastí se vydaly hledat nové místo k životu a bohaté státy musely uzavřít hranice. Svět, který je stále závislý na ropě, zasáhla energetická krize. Zoufalé lidstvo se obrátilo k polárním oblastem, kde se možná pod věčným ledem nacházejí obrovské zdroje nerostného bohatství. Vědec Thom Archer, který společně s přítelem Benem Johnsonem získal s nasazením vlastního život…
INFO
Citace:
Zdroj:DVB-T TV Nova
General / Container Stream #1
File Format.......................................AVI
Play Time.........................................1h 28mn
Total File Size...................................972 MiB
Video Stream #1
Frame Width.......................................1 280 pixels
Frame Height......................................720 pixels
Frame Rate........................................25.000 fps
Display Aspect Ratio..............................16:9
Audio Stream #1
Codec.............................................MPEG Audio
Audio Stream BitRate..............................192 Kbps
Number of Audio Channels..........................2

1 Díl
Hellshare
Jen registrovaní uživatelé mohou vidět odkazy v code. Přihlaste se nebo zaregistrujte ZDARMA.

Share-Rapid
Jen registrovaní uživatelé mohou vidět odkazy v code. Přihlaste se nebo zaregistrujte ZDARMA.

Euroshare
Jen registrovaní uživatelé mohou vidět odkazy v code. Přihlaste se nebo zaregistrujte ZDARMA.

2 Díl
Hellshare
Jen registrovaní uživatelé mohou vidět odkazy v code. Přihlaste se nebo zaregistrujte ZDARMA.

Share-Rapid
Jen registrovaní uživatelé mohou vidět odkazy v code. Přihlaste se nebo zaregistrujte ZDARMA.

Euroshare
Jen registrovaní uživatelé mohou vidět odkazy v code. Přihlaste se nebo zaregistrujte ZDARMA.

No Pass


Naposledy upravil shelbygt dne 07 led 2012, 08:38, celkově upraveno 1

04 led 2012, 09:12
Profil
Army General
Army General

Registrován: 21 črc 2009, 11:51
Příspěvky: 933
Příspěvek Re: Ľadové peklo / Ledová apokalypsa / Ice (2011)

Ledová apokalypsa / Ice (2011)

Re: Ľadové peklo / Ledová apokalypsa / Ice (2011)

Re: Ľadové peklo / Ledová apokalypsa / Ice (2011)
Jen registrovaní uživatelé mohou vidět odkazy v code. Přihlaste se nebo zaregistrujte ZDARMA.



Re: Ľadové peklo / Ledová apokalypsa / Ice (2011)
GENERAL TVRip
Citace:
Format : AVI
Format/Info : Audio Video Interleave
File size : 972 MiB
Duration : 1h 28mn
Overall bit rate : 1 537 Kbps

Video
ID : 0
Format : MPEG-4 Visual
Format profile : Advanced [email protected]
Format settings, BVOP : No
Format settings, QPel : No
Format settings, GMC : No warppoints
Format settings, Matrix : Default (MPEG)
Codec ID : XVID
Codec ID/Hint : XviD
Duration : 1h 28mn
Bit rate : 1 338 Kbps
Width : 1 280 pixels
Height : 720 pixels
Display aspect ratio : 16:9
Frame rate : 25.000 fps
Color space : YUV
Chroma subsampling : 4:2:0
Bit depth : 8 bits
Scan type : Progressive
Compression mode : Lossy
Bits/(Pixel*Frame) : 0.058
Stream size : 846 MiB (87%)
Writing library : XviD 1.2.1 (UTC 2008-12-04)

Audio
ID : 1
Format : MPEG Audio
Format version : Version 1
Format profile : Layer 3
Codec ID : 55
Codec ID/Hint : MP3
Duration : 1h 28mn
Bit rate mode : Constant
Bit rate : 192 Kbps
Channel(s) : 2 channels
Sampling rate : 44.1 KHz
Compression mode : Lossy
Stream size : 121 MiB (12%)
Alignment : Split accross interleaves
Interleave, duration : 80 ms (2.00 video frames)
Writing library : LAMELAME_MAJOR_VERSI




Re: Ľadové peklo / Ledová apokalypsa / Ice (2011)
Jen registrovaní uživatelé mohou vidět odkazy v code. Přihlaste se nebo zaregistrujte ZDARMA.



Re: Ľadové peklo / Ledová apokalypsa / Ice (2011)
Jen registrovaní uživatelé mohou vidět odkazy v code. Přihlaste se nebo zaregistrujte ZDARMA.



Re: Ľadové peklo / Ledová apokalypsa / Ice (2011)
Jen registrovaní uživatelé mohou vidět odkazy v code. Přihlaste se nebo zaregistrujte ZDARMA.


Re: Ľadové peklo / Ledová apokalypsa / Ice (2011)
Jen registrovaní uživatelé mohou vidět odkazy v code. Přihlaste se nebo zaregistrujte ZDARMA.


04 led 2012, 09:43
Profil
Příspěvek Re: Ľadové peklo / Ledová apokalypsa / Ice (2011)

Ľadové peklo / Ledová apokalypsa / Ice (2011)
TV Nova rip - Český dabing

Re: Ľadové peklo / Ledová apokalypsa / Ice (2011)

Jen registrovaní uživatelé mohou vidět odkazy v code. Přihlaste se nebo zaregistrujte ZDARMA.


Místo abychom se starali o náš svět, starali jsme se jen o sebe. V roce 2020 však nastal čas začít splácet dluh. Globální oteplování změnilo podobu světa, miliony lidí z nejhůře postižených oblastí se vydaly hledat nové místo k životu a bohaté státy musely uzavřít hranice. Svět, který je stále závislý na ropě, zasáhla energetická krize. Zoufalé lidstvo se obrátilo k polárním oblastem, kde se možná pod věčným ledem nacházejí obrovské zdroje nerostného bohatství. Vědec Thom Archer, který společně s přítelem Benem Johnsonem získal s nasazením vlastního života znepokojující důkazy o tom, že průzkum a těžba v ledové krajině mohou mít katastrofální následky. Pokusili se přesvědčit Arktický svaz, aby neprodlužoval licenci k vrtům nadnárodní energetické korporaci Halo, kterou řídí miliardář Anthony Kavanagh. Varuje zasedání, že vrty v oblasti grónských ledovců urychlují už tak nebezpečně rychlé tání, jehož vinou se do oceánu dostává obrovské množství sladké vody. Sarah Feech, zastupující Halo, však jeho argumentaci vyvrátí a dosáhne tak prodloužení licence. Naštvaný vědec chce dát výpověď, jenže právě v tu chvíli mu volá Ben, že objevil rozhodující důkazy. Thom se za ním vydá na vrtnou plošinu a současně tam odjíždí také Sarah, která má zajistit hladký průběh prací po nehodě, při níž bylo zraněno několik vrtařů. Znepokojená žena však zjistí, že situace je mnohem vážnější než se zdálo a když zjistí, že zranění dělníci byli opařeni poté, co vrt v hloubce tři sta metrů narušil termální zřídlo, pokusí se varovat Kavanagha. Ten však nedbá a trvá na pokračování vrtu. Vzápětí Sarah objeví v ledové pustině Benovu mrtvolu a společně s Thomem zjistí, že byl zavražděn poté, co objevil rozhodující důkaz podporující Thomovy varovné teorie. Než stačí dvojice cokoli podniknout, někdo se je pokusí zabít. A zatímco Thomova rodina je v Anglii při bezohledném policejním zásahu zatčena, Thom se Sarah se ocitají ve smrtící pasti, kde musejí čelit mrazu, ledu, vařící vodě a zákeřnému útoku záhadného vraha.

Akční
Velká Británie / Nový Zéland, 2011
Režie: Nick Copus
Hrají: Richard Roxburgh, Frances O'Connor, Nathaniel Lees, Tom Hern, Stephen Moyer, Claire Forlani, Sam Neill, Ben Cross, Simon Callow, Patrick Bergin, Werner Daehn, Gareth Reeves

1-DIEL
Ledova.apokalypsa.2011.1._tvripCZ
Jen registrovaní uživatelé mohou vidět odkazy v code. Přihlaste se nebo zaregistrujte ZDARMA.


Re: Ľadové peklo / Ledová apokalypsa / Ice (2011)
Jen registrovaní uživatelé mohou vidět odkazy v code. Přihlaste se nebo zaregistrujte ZDARMA.

Re: Ľadové peklo / Ledová apokalypsa / Ice (2011)
Jen registrovaní uživatelé mohou vidět odkazy v code. Přihlaste se nebo zaregistrujte ZDARMA.

Re: Ľadové peklo / Ledová apokalypsa / Ice (2011)
Jen registrovaní uživatelé mohou vidět odkazy v code. Přihlaste se nebo zaregistrujte ZDARMA.

Re: Ľadové peklo / Ledová apokalypsa / Ice (2011)
Jen registrovaní uživatelé mohou vidět odkazy v code. Přihlaste se nebo zaregistrujte ZDARMA.

Re: Ľadové peklo / Ledová apokalypsa / Ice (2011)
Jen registrovaní uživatelé mohou vidět odkazy v code. Přihlaste se nebo zaregistrujte ZDARMA.

Re: Ľadové peklo / Ledová apokalypsa / Ice (2011)
Jen registrovaní uživatelé mohou vidět odkazy v code. Přihlaste se nebo zaregistrujte ZDARMA.




*************************************



2-DIEL
Ledova.apokalypsa.2011.2._tvripCZ
Jen registrovaní uživatelé mohou vidět odkazy v code. Přihlaste se nebo zaregistrujte ZDARMA.


Re: Ľadové peklo / Ledová apokalypsa / Ice (2011)
Jen registrovaní uživatelé mohou vidět odkazy v code. Přihlaste se nebo zaregistrujte ZDARMA.

Re: Ľadové peklo / Ledová apokalypsa / Ice (2011)
Jen registrovaní uživatelé mohou vidět odkazy v code. Přihlaste se nebo zaregistrujte ZDARMA.

Re: Ľadové peklo / Ledová apokalypsa / Ice (2011)
Jen registrovaní uživatelé mohou vidět odkazy v code. Přihlaste se nebo zaregistrujte ZDARMA.

Re: Ľadové peklo / Ledová apokalypsa / Ice (2011)
Jen registrovaní uživatelé mohou vidět odkazy v code. Přihlaste se nebo zaregistrujte ZDARMA.

Re: Ľadové peklo / Ledová apokalypsa / Ice (2011)
Jen registrovaní uživatelé mohou vidět odkazy v code. Přihlaste se nebo zaregistrujte ZDARMA.

Re: Ľadové peklo / Ledová apokalypsa / Ice (2011)
Jen registrovaní uživatelé mohou vidět odkazy v code. Přihlaste se nebo zaregistrujte ZDARMA.


06 led 2012, 20:12
Private
Private

Registrován: 16 srp 2008, 06:24
Příspěvky: 2
Příspěvek Re: Ľadové peklo / Ledová apokalypsa / Ice (2011)

nemohol by to tu niekto zavesit znova na sharerapid lebo je to vsade zmazane


24 lis 2012, 13:07
Profil
Zobrazit příspěvky za předchozí:  Seřadit podle  
Odeslat nové téma Odpovědět na téma  [ Příspěvků: 5 ] 

Všechny časy jsou v UTC + 1 hodina


Nemůžete zakládat nová témata v tomto fóru
Nemůžete odpovídat v tomto fóru
Nemůžete upravovat své příspěvky v tomto fóru
Nemůžete mazat své příspěvky v tomto fóru
Nemůžete přikládat soubory v tomto fóru









StahovaniZaSMS Pizza Modena MP3 free download