fastshare
Babička,aneb jak to bylo doopravdy (2010)
Vypnout statistiky
KATEGORIEPOSLEDNÍ PŘÍSPĚVKYPOSLEDNÍ OZNÁMENÍSTATISTIKY UŽIVATELE
Nick: Anonymous
Příspěvků: 3361
Hodnost: Warman
Varování: 0
---
Právě je 20 zář 2018, 01:39





Všechny časy jsou v UTC + 1 hodina


Pravidla fóra







Odeslat nové téma Odpovědět na téma  [ Příspěvků: 5 ] 
 Babička,aneb jak to bylo doopravdy (2010) 
Autor Zpráva
Příspěvek Re: Babička,aneb jak to bylo doopravdy (2010)

Babička,aneb jak to bylo doopravdy (2010)

Re: Babička,aneb jak to bylo doopravdy (2010)

Jen registrovaní uživatelé mohou vidět odkazy v code. Přihlaste se nebo zaregistrujte ZDARMA.


Božena Němcová společně s vydavatelem píší román „Babička“. Důvod je více než zřejmý – Němcová se nachází ve finanční tísni a vydavatel cítí příležitost, jak na národním obrození vydělat. Ve filmu se Němcová vrací do svého dětství (druhá linie) a odhaluje divákovi skutečnou pravdu. Na Staré Bělidlo přijíždí po 20. letech babička. Není to ale Marie Novotná, nýbrž její soused Mareš. Díky své povaze si postupně získává přízeň rodiny Proškovic i samotné kněžny Zaháňské. Vydavateli se však tento příběh podaný B.Němcovou nelíbí a provádí nekompromisní korekci celého díla. Nakonec přepíše celou knihu sám. Proto se originální rukopis do dnešních dnů nedochoval. Situace ještě graduje příjezdem opravdové babičky a dochází k nečekanému odhalení. Celá rodina řeší velké dilema...

Historický / Komedie
Česko, 2009, 95 min
Režie: Pjeer van Eck
Hrají: Michaela Fišarová, Milan Mendlík, Hana Kostrhúnová, Jan Šváb, Miroslav Jech, Radka Tesárková

Babička,aneb jak to bylo doopravdy (2010)
Jen registrovaní uživatelé mohou vidět odkazy v code. Přihlaste se nebo zaregistrujte ZDARMA.


Re: Babička,aneb jak to bylo doopravdy (2010)
Jen registrovaní uživatelé mohou vidět odkazy v code. Přihlaste se nebo zaregistrujte ZDARMA.

Re: Babička,aneb jak to bylo doopravdy (2010)
Jen registrovaní uživatelé mohou vidět odkazy v code. Přihlaste se nebo zaregistrujte ZDARMA.

Re: Babička,aneb jak to bylo doopravdy (2010)
Jen registrovaní uživatelé mohou vidět odkazy v code. Přihlaste se nebo zaregistrujte ZDARMA.

Re: Babička,aneb jak to bylo doopravdy (2010)
Jen registrovaní uživatelé mohou vidět odkazy v code. Přihlaste se nebo zaregistrujte ZDARMA.

Re: Babička,aneb jak to bylo doopravdy (2010)
Jen registrovaní uživatelé mohou vidět odkazy v code. Přihlaste se nebo zaregistrujte ZDARMA.


26 úno 2012, 16:08
Captain
Captain

Registrován: 17 zář 2011, 14:32
Příspěvky: 294
Příspěvek Re: Babička,aneb jak to bylo doopravdy (2010)

Babička,aneb jak to bylo doopravdy (2009)

Re: Babička,aneb jak to bylo doopravdy (2010)

Re: Babička,aneb jak to bylo doopravdy (2010)
Jen registrovaní uživatelé mohou vidět odkazy v code. Přihlaste se nebo zaregistrujte ZDARMA.

Citace:
Historický / Komedie
Česko, 2009
Režie:
Pjeer van Eck
Hrají:
Michaela Fišarová, Milan Mendlík, Hana Kostrhúnová, Jan Šváb, Miroslav Jech, Radka Tesárková

Božena Němcová společně s vydavatelem píší román „Babička“. Důvod je více než zřejmý – Němcová se nachází ve finanční tísni a vydavatel cítí příležitost, jak na národním obrození vydělat. Ve filmu se Němcová vrací do svého dětství (druhá linie) a odhaluje divákovi skutečnou pravdu. Na Staré Bělidlo přijíždí po 20. letech babička. Není to ale Marie Novotná, nýbrž její soused Mareš. Díky své povaze si postupně získává přízeň rodiny Proškovic i samotné kněžny Zaháňské. Vydavateli se však tento příběh podaný B.Němcovou nelíbí a provádí nekompromisní korekci celého díla. Nakonec přepíše celou knihu sám. Proto se originální rukopis do dnešních dnů nedochoval. Situace ještě graduje příjezdem opravdové babičky a dochází k nečekanému odhalení. Celá rodina řeší velké dilema...

Re: Babička,aneb jak to bylo doopravdy (2010)
Citace:
Format : AVI
Format/Info : Audio Video Interleave
File size : 753 MiB
Duration : 1h 34mn
Overall bit rate : 1 109 Kbps
Writing application : VirtualDubMod 1.5.10.2 (build 2542/release)
Writing library : VirtualDubMod build 2542/release

Video
ID : 0
Format : MPEG-4 Visual
Format profile : Advanced [email protected]
Format settings, BVOP : 1
Format settings, QPel : No
Format settings, GMC : No warppoints
Format settings, Matrix : Default (H.263)
Muxing mode : Packed bitstream
Codec ID : XVID
Codec ID/Hint : XviD
Duration : 1h 34mn
Bit rate : 971 Kbps
Width : 1 024 pixels
Height : 576 pixels
Display aspect ratio : 16:9
Frame rate : 25.000 fps
Color space : YUV
Chroma subsampling : 4:2:0
Bit depth : 8 bits
Scan type : Progressive
Compression mode : Lossy
Bits/(Pixel*Frame) : 0.066
Stream size : 659 MiB (88%)
Writing library : XviD 62

Audio
ID : 1
Format : MPEG Audio
Format version : Version 1
Format profile : Layer 3
Mode : Joint stereo
Mode extension : MS Stereo
Codec ID : 55
Codec ID/Hint : MP3
Duration : 1h 34mn
Bit rate mode : Constant
Bit rate : 128 Kbps
Channel(s) : 2 channels
Sampling rate : 44.1 KHz
Compression mode : Lossy
Stream size : 86.9 MiB (12%)
Alignment : Split accross interleaves
Interleave, duration : 40 ms (1.00 video frame)
Interleave, preload duration : 500 ms
Writing library : LAME3.98


Re: Babička,aneb jak to bylo doopravdy (2010)

Re: Babička,aneb jak to bylo doopravdy (2010)
Jen registrovaní uživatelé mohou vidět odkazy v code. Přihlaste se nebo zaregistrujte ZDARMA.


Re: Babička,aneb jak to bylo doopravdy (2010)

Re: Babička,aneb jak to bylo doopravdy (2010)
Jen registrovaní uživatelé mohou vidět odkazy v code. Přihlaste se nebo zaregistrujte ZDARMA.


Re: Babička,aneb jak to bylo doopravdy (2010)

Re: Babička,aneb jak to bylo doopravdy (2010)

Jen registrovaní uživatelé mohou vidět odkazy v code. Přihlaste se nebo zaregistrujte ZDARMA.


Re: Babička,aneb jak to bylo doopravdy (2010)

Re: Babička,aneb jak to bylo doopravdy (2010)

Jen registrovaní uživatelé mohou vidět odkazy v code. Přihlaste se nebo zaregistrujte ZDARMA.


Re: Babička,aneb jak to bylo doopravdy (2010)


26 úno 2012, 16:36
Profil
Army General
Army General

Registrován: 21 črc 2009, 11:51
Příspěvky: 933
Příspěvek Re: Babička,aneb jak to bylo doopravdy (2010)

Babička,aneb jak to bylo doopravdy / 2010
Re: Babička,aneb jak to bylo doopravdy (2010)

Re: Babička,aneb jak to bylo doopravdy (2010)
Jen registrovaní uživatelé mohou vidět odkazy v code. Přihlaste se nebo zaregistrujte ZDARMA.



Re: Babička,aneb jak to bylo doopravdy (2010)
GENERAL TVRip
Citace:
Format : AVI
Format/Info : Audio Video Interleave
File size : 753 MiB
Duration : 1h 34mn
Overall bit rate : 1 109 Kbps
Writing application : VirtualDubMod 1.5.10.2 (build 2542/release)
Writing library : VirtualDubMod build 2542/release

Video
ID : 0
Format : MPEG-4 Visual
Format profile : Advanced [email protected]
Format settings, BVOP : 1
Format settings, QPel : No
Format settings, GMC : No warppoints
Format settings, Matrix : Default (H.263)
Muxing mode : Packed bitstream
Codec ID : XVID
Codec ID/Hint : XviD
Duration : 1h 34mn
Bit rate : 971 Kbps
Width : 1 024 pixels
Height : 576 pixels
Display aspect ratio : 16:9
Frame rate : 25.000 fps
Color space : YUV
Chroma subsampling : 4:2:0
Bit depth : 8 bits
Scan type : Progressive
Compression mode : Lossy
Bits/(Pixel*Frame) : 0.066
Stream size : 659 MiB (88%)
Writing library : XviD 62

Audio
ID : 1
Format : MPEG Audio
Format version : Version 1
Format profile : Layer 3
Mode : Joint stereo
Mode extension : MS Stereo
Codec ID : 55
Codec ID/Hint : MP3
Duration : 1h 34mn
Bit rate mode : Constant
Bit rate : 128 Kbps
Channel(s) : 2 channels
Sampling rate : 44.1 KHz
Compression mode : Lossy
Stream size : 86.9 MiB (12%)
Alignment : Split accross interleaves
Interleave, duration : 40 ms (1.00 video frame)
Interleave, preload duration : 500 ms
Writing library : LAME3.98




Re: Babička,aneb jak to bylo doopravdy (2010)
Jen registrovaní uživatelé mohou vidět odkazy v code. Přihlaste se nebo zaregistrujte ZDARMA.



Re: Babička,aneb jak to bylo doopravdy (2010)
Jen registrovaní uživatelé mohou vidět odkazy v code. Přihlaste se nebo zaregistrujte ZDARMA.



Re: Babička,aneb jak to bylo doopravdy (2010)
Jen registrovaní uživatelé mohou vidět odkazy v code. Přihlaste se nebo zaregistrujte ZDARMA.


Re: Babička,aneb jak to bylo doopravdy (2010)
Jen registrovaní uživatelé mohou vidět odkazy v code. Přihlaste se nebo zaregistrujte ZDARMA.


26 úno 2012, 16:40
Profil
Uploader
Uploader
Uživatelský avatar

Registrován: 16 led 2010, 03:36
Příspěvky: 792
Příspěvek Re: Babička,aneb jak to bylo doopravdy (2010)

Babička aneb Jak to bylo doopravdy (2009)

Re: Babička,aneb jak to bylo doopravdy (2010)

Re: Babička,aneb jak to bylo doopravdy (2010)
Jen registrovaní uživatelé mohou vidět odkazy v code. Přihlaste se nebo zaregistrujte ZDARMA.

Re: Babička,aneb jak to bylo doopravdy (2010)

Historický / Komedie
Česko, 2009, 95 min

Jen registrovaní uživatelé mohou vidět odkazy v code. Přihlaste se nebo zaregistrujte ZDARMA.


Re: Babička,aneb jak to bylo doopravdy (2010)

Re: Babička,aneb jak to bylo doopravdy (2010)
Jen registrovaní uživatelé mohou vidět odkazy v code. Přihlaste se nebo zaregistrujte ZDARMA.

Re: Babička,aneb jak to bylo doopravdy (2010)
Jen registrovaní uživatelé mohou vidět odkazy v code. Přihlaste se nebo zaregistrujte ZDARMA.

Re: Babička,aneb jak to bylo doopravdy (2010)
Jen registrovaní uživatelé mohou vidět odkazy v code. Přihlaste se nebo zaregistrujte ZDARMA.

Re: Babička,aneb jak to bylo doopravdy (2010)
Jen registrovaní uživatelé mohou vidět odkazy v code. Přihlaste se nebo zaregistrujte ZDARMA.

Re: Babička,aneb jak to bylo doopravdy (2010)
Jen registrovaní uživatelé mohou vidět odkazy v code. Přihlaste se nebo zaregistrujte ZDARMA.


Re: Babička,aneb jak to bylo doopravdy (2010)

Citace:
V prípade problému ma vždy kontaktuje cez SS/PM !!
Moje uploady sú VŽDY balené programom WinRAR !!
Moje uploady sú VŽDY bez hesla!!
Tlačítko ďakujem alebo iné poďakovanie vždy poteší !!
Za Power Uploaders pre Vás nahral Delfin !!!


26 úno 2012, 17:07
Profil
Colonel
Colonel

Registrován: 23 čer 2011, 20:11
Příspěvky: 380
Příspěvek Re: Babička,aneb jak to bylo doopravdy (2010)

Babička,aneb jak to bylo doopravdy (2010) - CZ


Re: Babička,aneb jak to bylo doopravdy (2010)



Historický / Komedie
Česko, 2009, 95 min


Režie:
Pjeer van Eck
Hrají:
Michaela Fišarová, Milan Mendlík, Hana Kostrhúnová, Jan Šváb, Miroslav Jech, Radka Tesárková



Božena Němcová společně s vydavatelem píší román „Babička“. Důvod je více než zřejmý – Němcová se nachází ve finanční tísni a vydavatel cítí příležitost, jak na národním obrození vydělat. Ve filmu se Němcová vrací do svého dětství (druhá linie) a odhaluje divákovi skutečnou pravdu. Na Staré Bělidlo přijíždí po 20. letech babička. Není to ale Marie Novotná, nýbrž její soused Mareš. Díky své povaze si postupně získává přízeň rodiny Proškovic i samotné kněžny Zaháňské. Vydavateli se však tento příběh podaný B.Němcovou nelíbí a provádí nekompromisní korekci celého díla. Nakonec přepíše celou knihu sám. Proto se originální rukopis do dnešních dnů nedochoval. Situace ještě graduje příjezdem opravdové babičky a dochází k nečekanému odhalení…..



Re: Babička,aneb jak to bylo doopravdy (2010)



Jen registrovaní uživatelé mohou vidět odkazy v code. Přihlaste se nebo zaregistrujte ZDARMA.




Screen:


Re: Babička,aneb jak to bylo doopravdy (2010)

Re: Babička,aneb jak to bylo doopravdy (2010)

Re: Babička,aneb jak to bylo doopravdy (2010)

Re: Babička,aneb jak to bylo doopravdy (2010)

Re: Babička,aneb jak to bylo doopravdy (2010)





Kvalita:


Velikost : 753 Mb.

[Film]
Formát: AVI
Délka : 01:34:56

[Video]
Rozlišení : 1024x576
Kodek : XviD MPEG-4 codec
FPS : 25.00
BitRate : 981 Kbps
Quality Factor : 0.07 b/px

[Audio]
Kodek : MPEG 1 or 2 Audio Layer 3 (MP3)
Počet kanálů : 2
Sample Rate : 44100 Hz
BitRate : 128 Kbps




Re: Babička,aneb jak to bylo doopravdy (2010)

Re: Babička,aneb jak to bylo doopravdy (2010)


Jen registrovaní uživatelé mohou vidět odkazy v code. Přihlaste se nebo zaregistrujte ZDARMA.







Re: Babička,aneb jak to bylo doopravdy (2010)


Jen registrovaní uživatelé mohou vidět odkazy v code. Přihlaste se nebo zaregistrujte ZDARMA.






Re: Babička,aneb jak to bylo doopravdy (2010)


Jen registrovaní uživatelé mohou vidět odkazy v code. Přihlaste se nebo zaregistrujte ZDARMA.






HESLO :

Jen registrovaní uživatelé mohou vidět odkazy v code. Přihlaste se nebo zaregistrujte ZDARMA.






.......


27 úno 2012, 21:08
Profil
Zobrazit příspěvky za předchozí:  Seřadit podle  
Odeslat nové téma Odpovědět na téma  [ Příspěvků: 5 ] 

Všechny časy jsou v UTC + 1 hodina


Nemůžete zakládat nová témata v tomto fóru
Nemůžete odpovídat v tomto fóru
Nemůžete upravovat své příspěvky v tomto fóru
Nemůžete mazat své příspěvky v tomto fóru
Nemůžete přikládat soubory v tomto fóru









StahovaniZaSMS Pizza Modena MP3 free download