fastshare
Rachot v Bronxu / Hung fan au (1995)
Vypnout statistiky
KATEGORIEPOSLEDNÍ PŘÍSPĚVKYPOSLEDNÍ OZNÁMENÍSTATISTIKY UŽIVATELE
Nick: Anonymous
Příspěvků: 3381
Hodnost: Warman
Varování: 0
---
Právě je 20 led 2018, 18:12





Všechny časy jsou v UTC + 1 hodina


Pravidla fóra







Odeslat nové téma Odpovědět na téma  [ Příspěvků: 5 ] 
 Rachot v Bronxu / Hung fan au (1995) 
Autor Zpráva
V.I.P.
V.I.P.
Uživatelský avatar

Registrován: 30 srp 2006, 08:57
Příspěvky: 1566
Bydliště: Warcenter
Příspěvek Rachot v Bronxu / Hung fan au (1995)

Rachot v Bronxu / Hung fan au (1995)

Rachot v Bronxu / Hung fan au (1995)

Rachot v Bronxu / Hung fan au (1995) http://www.csfd.cz/film/11385

Rachot v Bronxu / Hung fan au (1995)


Jen registrovaní uživatelé mohou vidět odkazy v code. Přihlaste se nebo zaregistrujte ZDARMA.

_________________


Naposledy upravil ladan dne 02 črc 2012, 23:34, celkově upraveno 1
Smazány nefunkční odkazy


19 dub 2009, 23:05
Profil
Uploader
Uploader

Registrován: 25 dub 2008, 19:27
Příspěvky: 419
Příspěvek Re: Rachot v Bronxu / Hong faan kui (1995)

Re: Rachot v Bronxu / Hong faan kui (1995)
Re: Rachot v Bronxu / Hong faan kui (1995)<< Klikni Pro Zobrazení Původní Velikosti

Re: Rachot v Bronxu / Hong faan kui (1995)
Mladý asiat má v New Yorku problémy nejen s přízvukem, žlutým pigmentem a šikmýma očima, ale také s partou nepřátel. Ty asi mimo jiné hodně štve, že není úplně lhostejný několika atraktivním dívkám a navíc docela slušně ovládá bojová umění. I když jeho ruce a nohy dokážou kolem sebe bít s ocelovou pevností, železnou pravidelností a žulovou tvrdostí, občas se vyplatí i trocha napoleonské strategie. Naštěstí má hlavní hrdina mozek v pořádku, a tak odolá i nejhrubší síle.

Re: Rachot v Bronxu / Hong faan kui (1995)
Jen registrovaní uživatelé mohou vidět odkazy v code. Přihlaste se nebo zaregistrujte ZDARMA.


Re: Rachot v Bronxu / Hong faan kui (1995)
Jen registrovaní uživatelé mohou vidět odkazy v code. Přihlaste se nebo zaregistrujte ZDARMA.


Re: Rachot v Bronxu / Hong faan kui (1995)
Re: Rachot v Bronxu / Hong faan kui (1995) Rachot v Bronxu
Re: Rachot v Bronxu / Hong faan kui (1995) Hong faan kui
Re: Rachot v Bronxu / Hong faan kui (1995) Rumble in the Bronx

Akční / Thriller / Komedie / Krimi
Hong Kong / Kanada, 1995, 87 min

Režie: Stanley Tong
Hrají: Jackie Chan, Anita Mui, Françoise Yip, Lauro Chartrand

Re: Rachot v Bronxu / Hong faan kui (1995)
Citace:
Jméno Souboru : D:\Rachot v Bronxu (1995).avi
Velikost souboru : 692 Mb.

Re: Rachot v Bronxu / Hong faan kui (1995)
Platnost : Ano [AVI]
Délka : 01:25:08
Kompletní film : Ano

Re: Rachot v Bronxu / Hong faan kui (1995)
Rozlišení : 688x288
Kodek : Intel ITU H.264
FPS : 25,00
BitRate : 1040 Kbps
Faktor kvality : 0,21 b/px

Re: Rachot v Bronxu / Hong faan kui (1995)
Kodek : MPEG 1 or 2 Audio Layer 3 (MP3)
Počet kanálů : 2
Samplovací frekvence : 48000 Hz
BitRate : 96 Kbps


Re: Rachot v Bronxu / Hong faan kui (1995)
Re: Rachot v Bronxu / Hong faan kui (1995)<< Klikni Pro Zobrazení Původní Velikosti

Re: Rachot v Bronxu / Hong faan kui (1995)
Jen registrovaní uživatelé mohou vidět odkazy v code. Přihlaste se nebo zaregistrujte ZDARMA.

Re: Rachot v Bronxu / Hong faan kui (1995)

_________________
nedělám reuploady svých uploadů


Naposledy upravil ladan dne 02 črc 2012, 23:36, celkově upraveno 1
Smazány nefunkční odkazy a obrázky


03 pro 2010, 13:16
Profil
Army General
Army General

Registrován: 21 črc 2009, 11:51
Příspěvky: 936
Příspěvek Re: Rachot v Bronxu / Hong faan kui (1995)

Rachot v Bronxu / Rumble in the Bronx (1995)
Re: Rachot v Bronxu / Hong faan kui (1995)

http://www.csfd.cz/film/11385-rachot-v-bronxu/


Re: Rachot v Bronxu / Hong faan kui (1995)

Citace:
Format : AVI
Format/Info : Audio Video Interleave
File size : 998 MiB
Duration : 1h 29mn
Overall bit rate : 1 558 Kbps

Video
ID : 0
Format : MPEG-4 Visual
Codec ID : DIV3
Codec ID/Hint : DivX 3 Low
Duration : 1h 29mn
Bit rate : 1 416 Kbps
Width : 720 pixels
Height : 400 pixels
Display aspect ratio : 16:9
Frame rate : 29.970 fps
Color space : YUV
Chroma subsampling : 4:2:0
Bit depth : 8 bits
Compression mode : Lossy
Bits/(Pixel*Frame) : 0.164
Stream size : 907 MiB (91%)

Audio
ID : 1
Format : MPEG Audio
Format version : Version 1
Format profile : Layer 3
Mode : Joint stereo
Mode extension : MS Stereo
Codec ID : 55
Codec ID/Hint : MP3
Duration : 1h 29mn
Bit rate mode : Constant
Bit rate : 128 Kbps
Channel(s) : 2 channels
Sampling rate : 48.0 KHz
Compression mode : Lossy
Stream size : 82.0 MiB (8%)
Alignment : Split accross interleaves
Interleave, duration : 24 ms (0.72 video frame)

Jen registrovaní uživatelé mohou vidět odkazy v code. Přihlaste se nebo zaregistrujte ZDARMA.


Naposledy upravil ladan dne 02 črc 2012, 23:40, celkově upraveno 1
Smazány nefunkční odkazy a obrázky


16 čer 2011, 10:18
Profil
Colonel 4 th class
Colonel 4 th class
Uživatelský avatar

Registrován: 18 kvě 2009, 19:54
Příspěvky: 501
Příspěvek Re: Rachot v Bronxu / Hung fan au (1995)

Re: Rachot v Bronxu / Hung fan au (1995)

Mladý asiat má v New Yorku problémy nejen s přízvukem, žlutým pigmentem a šikmýma očima, ale také s partou nepřátel. Ty asi mimo jiné hodně štve, že není úplně lhostejný několika atraktivním dívkám a navíc docela slušně ovládá bojová umění. I když jeho ruce a nohy dokážou kolem sebe bít s ocelovou pevností, železnou pravidelností a žulovou tvrdostí, občas se vyplatí i trocha napoleonské strategie. Naštěstí má hlavní hrdina mozek v pořádku, a tak odolá i nejhrubší síle.

Jen registrovaní uživatelé mohou vidět odkazy v code. Přihlaste se nebo zaregistrujte ZDARMA.


Kvalita

Re: Rachot v Bronxu / Hung fan au (1995)

Download

share-rapid

Jen registrovaní uživatelé mohou vidět odkazy v code. Přihlaste se nebo zaregistrujte ZDARMA.


fastshare

Jen registrovaní uživatelé mohou vidět odkazy v code. Přihlaste se nebo zaregistrujte ZDARMA.


hellshare

Jen registrovaní uživatelé mohou vidět odkazy v code. Přihlaste se nebo zaregistrujte ZDARMA.

_________________
Mé DVD uploady jsou čisté kopie originálů, bez komprese.


24 dub 2013, 21:37
Profil
Colonel 2 nd class
Colonel 2 nd class

Registrován: 04 led 2008, 07:29
Příspěvky: 406
Příspěvek Re: Rachot v Bronxu / Hung fan au (1995)

Rachot v Bronxu / Rumble in The Bronx (1995)

Re: Rachot v Bronxu / Hung fan au (1995)

Jen registrovaní uživatelé mohou vidět odkazy v code. Přihlaste se nebo zaregistrujte ZDARMA.


Jen registrovaní uživatelé mohou vidět odkazy v code. Přihlaste se nebo zaregistrujte ZDARMA.


Jen registrovaní uživatelé mohou vidět odkazy v code. Přihlaste se nebo zaregistrujte ZDARMA.


Jen registrovaní uživatelé mohou vidět odkazy v code. Přihlaste se nebo zaregistrujte ZDARMA.


10 led 2018, 17:37
Profil
Zobrazit příspěvky za předchozí:  Seřadit podle  
Odeslat nové téma Odpovědět na téma  [ Příspěvků: 5 ] 

Všechny časy jsou v UTC + 1 hodina


Nemůžete zakládat nová témata v tomto fóru
Nemůžete odpovídat v tomto fóru
Nemůžete upravovat své příspěvky v tomto fóru
Nemůžete mazat své příspěvky v tomto fóru
Nemůžete přikládat soubory v tomto fóru









StahovaniZaSMS Pizza Modena MP3 free download