fastshare
Rafinovaný zloděj / Ordinary Decent Criminal (2000)
Vypnout statistiky
KATEGORIEPOSLEDNÍ PŘÍSPĚVKYPOSLEDNÍ OZNÁMENÍSTATISTIKY UŽIVATELE
Nick: Anonymous
Příspěvků: 3388
Hodnost: Warman
Varování: 0
---
Právě je 19 říj 2017, 22:44





Všechny časy jsou v UTC + 1 hodina


Pravidla fóra







Odeslat nové téma Odpovědět na téma  [ Příspěvek: 1 ] 
 Rafinovaný zloděj / Ordinary Decent Criminal (2000) 
Autor Zpráva
Uploader
Uploader
Uživatelský avatar

Registrován: 02 dub 2008, 20:10
Příspěvky: 371
Příspěvek Re: Rafinovaný zloděj / Ordinary Decent Criminal (2000)

Rafinovaný zloděj / Ordinary Decent Criminal (2000)
Krimi / Komedie
Německo / Irsko / Velká Británie / USA, 93 min


Jen registrovaní uživatelé mohou vidět odkazy v code. Přihlaste se nebo zaregistrujte ZDARMA.



General
Format : AVI
Format/Info : Audio Video Interleave
File size : 656 MiB
Duration : 1h 26mn
Overall bit rate : 1 062 Kbps
Writing library : VirtualDub build 13130/release

Video
Format : MPEG-4 Visual
Codec ID : DIV3
Codec ID/Hint : DivX 3 Low
Duration : 1h 26mn
Bit rate : 989 Kbps
Width : 400 pixels
Height : 300 pixels
Display aspect ratio : 4/3
Frame rate : 25.000 fps
Resolution : 24 bits
Bits/(Pixel*Frame) : 0.330
Stream size : 611 MiB (93%)

Audio
Format : WMA2
Codec ID : 161
Codec ID/Info : Windows Media Audio 2
Duration : 1h 26mn
Bit rate : 64.1 Kbps
Channel(s) : 2 channels
Sampling rate : 44.1 KHz
Resolution : 16 bits
Stream size : 39.6 MiB (6%)
Interleave, duration : 46 ms (1.16 video frame)
Interleave, preload duration : 464 ms




Jen registrovaní uživatelé mohou vidět odkazy v code. Přihlaste se nebo zaregistrujte ZDARMA.

_________________
Vzhledem, k velkemu mnozstvi nahlasenych postu, jiz neuploadujeme.


Naposledy upravil Shelby GT500 dne 07 črc 2012, 19:12, celkově upraveno 1
Smazány mrtvé linky.


23 zář 2009, 21:32
Profil
Zobrazit příspěvky za předchozí:  Seřadit podle  
Odeslat nové téma Odpovědět na téma  [ Příspěvek: 1 ] 

Všechny časy jsou v UTC + 1 hodina


Nemůžete zakládat nová témata v tomto fóru
Nemůžete odpovídat v tomto fóru
Nemůžete upravovat své příspěvky v tomto fóru
Nemůžete mazat své příspěvky v tomto fóru
Nemůžete přikládat soubory v tomto fóru









StahovaniZaSMS Pizza Modena MP3 free download