fastshare
Colette (2013)
Vypnout statistiky
KATEGORIEPOSLEDNÍ PŘÍSPĚVKYPOSLEDNÍ OZNÁMENÍSTATISTIKY UŽIVATELE
Nick: Anonymous
Příspěvků: 3381
Hodnost: Warman
Varování: 0
---
Právě je 16 led 2018, 16:01





Všechny časy jsou v UTC + 1 hodina


Pravidla fóra







Odeslat nové téma Odpovědět na téma  [ Příspěvků: 5 ] 
 Colette (2013) 
Autor Zpráva
Warman
Warman

Registrován: 16 črc 2011, 10:59
Příspěvky: 1172
Příspěvek Colette (2013)


Colette (2013)


Colette.2013.DVDrip.XviD.AC3.CZ-Starcross

Colette (2013)

Jen registrovaní uživatelé mohou vidět odkazy v code. Přihlaste se nebo zaregistrujte ZDARMA.

Jazyk: 5.1 Cz
Titulky: Cz-forced
Kdy a kde: Česko / Slovensko / Nizozemsko, 2013
Délka: 119 min.
Žánr: Drama / Romantický / Válečný / Historický

720:304; 2,35:1
XviD, Celkový BitRate: 2 049 Kbps
Video BitRate: 1 594 Kbps
AC3, 6 kanály/448 Kbps
25.000 fps, 48 Khz
1,71 GB

Colette (2013)

Milostný příběh zajatců Viliho (Jiří Mádl) a krásné belgické židovky Colette (Clémence Thioly) vypráví o osudu tajné lásky v prostředí hrůzy a smrti, o tenké hranici mezi dobrem a zlem a pravdou a lží.. V osvětimském koncentračním táboře se před námi odhaluje nelítostný svět každodenního boje o přežití. Vládne tu přísná hierarchie i mezi samotnými vězni. Obchoduje se se vším, co může zachránit život, nebo alespoň na chvíli oddálit smrt.
Židovka Colette přijíždí do Osvětimi transportem z Belgie.
Vězeň Vili jí poradí, co má říci při selekci, a tím ji zachrání před smrtí v plynové komoře. Colettiny krásy si brzy všimne fanatický důstojník SS Weisacker (Eric Bouwer) a zaměstná ji ve své dílně. Nezadržitelně propadá jejímu kouzlu a zároveň se opájí krutostí a mocí nad životem a smrtí rasově méněcenné bytosti.


euroshare:
Jen registrovaní uživatelé mohou vidět odkazy v code. Přihlaste se nebo zaregistrujte ZDARMA.

fastshare:
Jen registrovaní uživatelé mohou vidět odkazy v code. Přihlaste se nebo zaregistrujte ZDARMA.

V případě potřeby udělám re-upload


Naposledy upravil ramiles99 dne 23 úno 2014, 17:20, celkově upraveno 1

19 úno 2014, 06:22
Profil
Warman
Warman
Uživatelský avatar

Registrován: 25 lis 2008, 11:02
Příspěvky: 6593
Příspěvek Re: Colette (2013)

Colette (2013)

Colette.2013.BRRip.XviD.CZ-TreZzoR
Colette.2013.DVDrip.XviD.AC3.CZ-Starcross

Re: Colette (2013)
Jen registrovaní uživatelé mohou vidět odkazy v code. Přihlaste se nebo zaregistrujte ZDARMA.


Colette.2013.BRRip.XviD.CZ-TreZzoR
Jen registrovaní uživatelé mohou vidět odkazy v code. Přihlaste se nebo zaregistrujte ZDARMA.

Jen registrovaní uživatelé mohou vidět odkazy v code. Přihlaste se nebo zaregistrujte ZDARMA.


Colette.2013.DVDrip.XviD.AC3.CZ-Starcross
Jen registrovaní uživatelé mohou vidět odkazy v code. Přihlaste se nebo zaregistrujte ZDARMA.

Jen registrovaní uživatelé mohou vidět odkazy v code. Přihlaste se nebo zaregistrujte ZDARMA.


Naposledy upravil miki7811 dne 05 črc 2015, 18:00, celkově upraveno 1

08 dub 2015, 16:20
Profil
Captain
Captain

Registrován: 30 pro 2007, 17:16
Příspěvky: 287
Příspěvek Re: Colette (2013)

Colette (2013)
BDRip

Re: Colette (2013)

Jen registrovaní uživatelé mohou vidět odkazy v code. Přihlaste se nebo zaregistrujte ZDARMA.


Citace:
Format : AVI
File size : 1.71 GiB
Duration : 1h 59mn
Overall bit rate : 2 049 Kbps

Video
Format : MPEG-4 Visual
Format profile : Advanced [email protected]
Codec ID/Hint : XviD
Duration : 1h 59mn
Bit rate : 1 594 Kbps
Width : 720 pixels
Height : 304 pixels
Display aspect ratio : 2.35:1
Frame rate : 25.000 fps
Color space : YUV
Chroma subsampling : 4:2:0
Bit depth : 8 bits
Scan type : Progressive
Compression mode : Lossy
Bits/(Pixel*Frame) : 0.291
Stream size : 1.33 GiB (78%)

Audio
Format : AC-3
Duration : 1h 59mn
Bit rate mode : Constant
Bit rate : 448 Kbps
Channel(s) : 6 channels
Channel positions : Front: L C R, Side: L R, LFE
Sampling rate : 48.0 KHz
Bit depth : 16 bits
Compression mode : Lossy
Delay relative to video : 27ms
Stream size : 384 MiB (22%)
Alignment : Split accross interleaves
Interleave, duration : 96 ms (2.40 video frames)
Interleave, preload duration : 96 ms
Language : Czech


Fastshare
Jen registrovaní uživatelé mohou vidět odkazy v code. Přihlaste se nebo zaregistrujte ZDARMA.


12 kvě 2015, 21:22
Profil
Colonel 3 rd class
Colonel 3 rd class

Registrován: 07 kvě 2015, 11:10
Příspěvky: 465
Příspěvek Re: Colette (2013)

Colette (2013)
Re: Colette (2013)
Jen registrovaní uživatelé mohou vidět odkazy v code. Přihlaste se nebo zaregistrujte ZDARMA.


Obsah filmu:
Milostný příběh zajatců Viliho (Jiří Mádl) a krásné belgické židovky Colette (Clémence Thioly) vypráví o osudu tajné lásky v prostředí hrůzy a smrti, o tenké hranici mezi dobrem a zlem a pravdou a lží.. V osvětimském koncentračním táboře se před námi odhaluje nelítostný svět každodenního boje o přežití. Vládne tu přísná hierarchie i mezi samotnými vězni. Obchoduje se se vším, co může zachránit život, nebo alespoň na chvíli oddálit smrt. Židovka Colette přijíždí do Osvětimi transportem z Belgie. Vězeň Vili jí poradí, co má říci při selekci, a tím ji zachrání před smrtí v plynové komoře. Colettiny krásy si brzy všimne fanatický důstojník SS Weisacker (Eric Bouwer) a zaměstná ji ve své dílně. Nezadržitelně propadá jejímu kouzlu a zároveň se opájí krutostí a mocí nad životem a smrtí rasově méněcenné bytosti. Navzdory každodennímu utrpení se Vili a Colette sbližují. Jejich láska jim dodává sílu snášet peklo koncentračního tábora. V zoufalém boji o život společně naplánují riskantní útěk...

Media Info:
Jen registrovaní uživatelé mohou vidět odkazy v code. Přihlaste se nebo zaregistrujte ZDARMA.

Jen registrovaní uživatelé mohou vidět odkazy v code. Přihlaste se nebo zaregistrujte ZDARMA.

Jen registrovaní uživatelé mohou vidět odkazy v code. Přihlaste se nebo zaregistrujte ZDARMA.


19 srp 2015, 14:12
Profil
Colonel 3 rd class
Colonel 3 rd class

Registrován: 20 čer 2015, 20:36
Příspěvky: 460
Příspěvek Re: Colette (2013)

Colette / 2013


Colette.2013.BRRip.XviD.CZ


Audio: Czech
Subtitles: -

Re: Colette (2013)

Jen registrovaní uživatelé mohou vidět odkazy v code. Přihlaste se nebo zaregistrujte ZDARMA.


Colette.2013.BRRip.XviD.CZ
Jen registrovaní uživatelé mohou vidět odkazy v code. Přihlaste se nebo zaregistrujte ZDARMA.


Jen registrovaní uživatelé mohou vidět odkazy v code. Přihlaste se nebo zaregistrujte ZDARMA.

_________________
V případě že ukazuje po stažení souboru z Fastshare u souboru 0MB je to způsobeno že to stahujete přes volné stahování, soubory jsou v pořádku a při stažení přes kredit je i velikost těchto souborů v pořádku.


19 lis 2017, 16:21
Profil
Zobrazit příspěvky za předchozí:  Seřadit podle  
Odeslat nové téma Odpovědět na téma  [ Příspěvků: 5 ] 

Všechny časy jsou v UTC + 1 hodina


Nemůžete zakládat nová témata v tomto fóru
Nemůžete odpovídat v tomto fóru
Nemůžete upravovat své příspěvky v tomto fóru
Nemůžete mazat své příspěvky v tomto fóru
Nemůžete přikládat soubory v tomto fóru









StahovaniZaSMS Pizza Modena MP3 free download