fastshare
Tajný život mazlíčků / The Secret Life of Pets (2016)
Vypnout statistiky
KATEGORIEPOSLEDNÍ PŘÍSPĚVKYPOSLEDNÍ OZNÁMENÍSTATISTIKY UŽIVATELE
Nick: Anonymous
Příspěvků: 3361
Hodnost: Warman
Varování: 0
---
Právě je 20 říj 2018, 01:16





Všechny časy jsou v UTC + 1 hodina


Pravidla fóra







Odeslat nové téma Odpovědět na téma  [ Příspěvků: 17 ]  Přejít na stránku Předchozí  1, 2
 Tajný život mazlíčků / The Secret Life of Pets (2016) 
Autor Zpráva
Colonel 5 th class
Colonel 5 th class

Registrován: 20 čer 2015, 20:36
Příspěvky: 649
Příspěvek Re: Tajný život mazlíčků / The Secret Life of Pets (2016)

Tajný život mazlíčků / The Secret Life of Pets / 2016


The.Secret.Life.of.Pets.2016.BDRip.x264.CZ


Audio: Czech
Subtitles: Czech(f)

Re: Tajný život mazlíčků / The Secret Life of Pets (2016)

Jen registrovaní uživatelé mohou vidět odkazy v code. Přihlaste se nebo zaregistrujte ZDARMA.


The.Secret.Life.of.Pets.2016.BDRip.x264.CZ
Jen registrovaní uživatelé mohou vidět odkazy v code. Přihlaste se nebo zaregistrujte ZDARMA.


Jen registrovaní uživatelé mohou vidět odkazy v code. Přihlaste se nebo zaregistrujte ZDARMA.


18 lis 2017, 02:05
Profil
Major
Major

Registrován: 30 pro 2007, 17:16
Příspěvky: 348
Příspěvek Re: Tajný život mazlíčků / The Secret Life of Pets (2016)

Tajný život mazlíčků / The Secret Life of Pets (2016)
Video/Zdroj: BDRip 720p
Audio: CZ AAC 2ch, EN AAC 2ch
Titulky: CZ

Re: Tajný život mazlíčků / The Secret Life of Pets (2016)

CSFD / IMDB
Jen registrovaní uživatelé mohou vidět odkazy v code. Přihlaste se nebo zaregistrujte ZDARMA.


INFO
Citace:
Format : Matroska
Format version : Version 4 / Version 2
File size : 818 MiB
Duration : 1h 26mn
Overall bit rate : 1 323 Kbps

Video
Format : AVC
Format profile : [email protected]
Duration : 1h 26mn
Bit rate : 1 159 Kbps
Width : 1 280 pixels
Height : 688 pixels
Display aspect ratio : 1.85:1
Frame rate mode : Constant
Frame rate : 29.970 (30000/1001) fps
Color space : YUV
Chroma subsampling : 4:2:0
Bit depth : 8 bits
Scan type : Progressive
Bits/(Pixel*Frame) : 0.044
Stream size : 716 MiB (87%)

Audio #1
Format : AAC
Duration : 1h 26mn
Bit rate : 98.5 Kbps
Channel(s) : 2 channels
Channel positions : Front: L R
Sampling rate : 48.0 KHz
Frame rate : 46.875 fps (1024 spf)
Compression mode : Lossy
Delay relative to video : -167ms
Stream size : 60.9 MiB (7%)
Language : Czech
Default : Yes
Forced : No

Audio #2
Format : AAC
Duration : 1h 26mn
Bit rate : 64.0 Kbps
Channel(s) : 2 channels
Channel positions : Front: L R
Sampling rate : 44.1 KHz / 22.05 KHz
Frame rate : 21.533 fps (1024 spf)
Compression mode : Lossy
Delay relative to video : 33ms
Stream size : 39.6 MiB (5%)
Language : English
Default : No
Forced : No

Text
Format : UTF-8
Duration : 1h 25mn
Language : Czech
Default : No
Forced : No


Fastshare
Jen registrovaní uživatelé mohou vidět odkazy v code. Přihlaste se nebo zaregistrujte ZDARMA.


07 zář 2018, 13:39
Profil
Zobrazit příspěvky za předchozí:  Seřadit podle  
Odeslat nové téma Odpovědět na téma  [ Příspěvků: 17 ]  Přejít na stránku Předchozí  1, 2

Všechny časy jsou v UTC + 1 hodina


Nemůžete zakládat nová témata v tomto fóru
Nemůžete odpovídat v tomto fóru
Nemůžete upravovat své příspěvky v tomto fóru
Nemůžete mazat své příspěvky v tomto fóru
Nemůžete přikládat soubory v tomto fóru









StahovaniZaSMS Pizza Modena MP3 free download