fastshare
Únos (2017)
Vypnout statistiky
KATEGORIEPOSLEDNÍ PŘÍSPĚVKYPOSLEDNÍ OZNÁMENÍSTATISTIKY UŽIVATELE
Nick: Anonymous
Příspěvků: 3388
Hodnost: Warman
Varování: 0
---
Právě je 19 zář 2017, 18:07





Všechny časy jsou v UTC + 1 hodina


Pravidla fóra







Odeslat nové téma Odpovědět na téma  [ Příspěvků: 5 ] 
 Únos (2017) 
Autor Zpráva
Warman
Warman
Uživatelský avatar

Registrován: 31 srp 2015, 17:58
Příspěvky: 2425
Příspěvek Únos (2017)

Únos (2017)
Unos.2017.SK FILM.WEB-DL.Avi
Jazyk - SK
Únos (2017)
Jen registrovaní uživatelé mohou vidět odkazy v code. Přihlaste se nebo zaregistrujte ZDARMA.

Jen registrovaní uživatelé mohou vidět odkazy v code. Přihlaste se nebo zaregistrujte ZDARMA.

Únos (2017)
Únos (2017)
Jen registrovaní uživatelé mohou vidět odkazy v code. Přihlaste se nebo zaregistrujte ZDARMA.


30 srp 2017, 19:34
Profil
Private 1 st class
Private 1 st class

Registrován: 28 zář 2015, 08:58
Příspěvky: 21
Příspěvek Re: Únos (2017)

Únos (2017) SK

Unos.2017.SK FILM.WEB-DL.Avi
unnayw8.rar

Re: Únos (2017)


Re: Únos (2017)

Jen registrovaní uživatelé mohou vidět odkazy v code. Přihlaste se nebo zaregistrujte ZDARMA.


Drama
Slovensko, 2017, 102 min

Režie: Mariana Čengelová-Solčanská
Kamera: Ladislav Janošťák
Hudba: Vladimír Martinka
Hrají: Rebeka Poláková, Milan Mikulčík, Maroš Kramár, Ingrid Timková, Milan Ondrík, Daniel Heriban, Ján Greššo, Tomáš Hanák, Dávid Hartl, Vladislav Plevčík, Juraj Hrčka, Eva Pavlíková, Gabriela Dolná, Katarína Kolajová, Marko Igonda

Re: Únos (2017)

Formát: Avi
Jazyk : SK
Rozlíšenie: 720x304
WEB-DL rip
1,63 GB


Dlžka filmu: 01:37:46

Video: MPEG-4 Visual Streaming Video L1 / Codec: XVID / Bit Rate: 2000 Kbps
Audio: AC-3 / Bit rate: 384 / 6 channel / 48 KHz


Re: Únos (2017)
Jen registrovaní uživatelé mohou vidět odkazy v code. Přihlaste se nebo zaregistrujte ZDARMA.



Re: Únos (2017)
Jen registrovaní uživatelé mohou vidět odkazy v code. Přihlaste se nebo zaregistrujte ZDARMA.



Re: Únos (2017)
Jen registrovaní uživatelé mohou vidět odkazy v code. Přihlaste se nebo zaregistrujte ZDARMA.



Re: Únos (2017)
Jen registrovaní uživatelé mohou vidět odkazy v code. Přihlaste se nebo zaregistrujte ZDARMA.



HESLO: dabing


30 srp 2017, 23:04
Profil
Private 1 st class
Private 1 st class

Registrován: 15 črc 2011, 14:28
Příspěvky: 30
Příspěvek Re: Únos (2017)

ÚNOS (2017)_SK

Re: Únos (2017)

__.__
Jen registrovaní uživatelé mohou vidět odkazy v code. Přihlaste se nebo zaregistrujte ZDARMA.


__.__
Jen registrovaní uživatelé mohou vidět odkazy v code. Přihlaste se nebo zaregistrujte ZDARMA.


)..(
Jen registrovaní uživatelé mohou vidět odkazy v code. Přihlaste se nebo zaregistrujte ZDARMA.


8-O

XXXXXXXXXXXXXXXXXXXXXXXXXXXXXXXXXXXXXXXXXXXXXXXXXXXXXXXXXXXXXXXXXXXXXXXXXXXXXXXXXXXXXXXXXXXXXXXXXXXXXXXXXXXXXXXXXXXXXXXXXXXXXXXXXXXXXXXXXXXXXXX

__.__
Jen registrovaní uživatelé mohou vidět odkazy v code. Přihlaste se nebo zaregistrujte ZDARMA.


)..(
Jen registrovaní uživatelé mohou vidět odkazy v code. Přihlaste se nebo zaregistrujte ZDARMA.


:D


Naposledy upravil splaw dne 31 srp 2017, 12:51, celkově upraveno 1

31 srp 2017, 06:46
Profil
Colonel 2 nd class
Colonel 2 nd class

Registrován: 06 úno 2011, 19:29
Příspěvky: 404
Příspěvek Re: Únos (2017)

Únos (2017) SK
Uploaded By - Europa2 | Enjoy and say Thanks !!

Obal/Cover:

Re: Únos (2017)

Informácie/Informations:

Jen registrovaní uživatelé mohou vidět odkazy v code. Přihlaste se nebo zaregistrujte ZDARMA.


Kvalita/Quality:

Format : AVI
Format/Info : Audio Video Interleave
File size : 1.63 GiB
Duration : 1h 37mn
Overall bit rate : 2 393 Kbps
Writing application : VirtualDubMod 1.5.10.2 (build 2542/release)
Writing library : VirtualDubMod build 2542/release

Video
ID : 0
Format : MPEG-4 Visual
Format profile : Advanced [email protected]
Format settings, BVOP : 1
Format settings, QPel : No
Format settings, GMC : No warppoints
Format settings, Matrix : Default (MPEG)
Codec ID : XVID
Codec ID/Hint : XviD
Duration : 1h 37mn
Bit rate : 2 000 Kbps
Width : 720 pixels
Height : 304 pixels
Display aspect ratio : 2.35:1
Frame rate : 25.000 fps
Color space : YUV
Chroma subsampling : 4:2:0
Bit depth : 8 bits
Scan type : Progressive
Compression mode : Lossy
Bits/(Pixel*Frame) : 0.365
Stream size : 1.37 GiB (84%)
Writing library : XviD 1.2.1 (UTC 2008-12-04)

Audio
ID : 1
Format : AC-3
Format/Info : Audio Coding 3
Mode extension : CM (complete main)
Format settings, Endianness : Big
Codec ID : 2000
Duration : 1h 37mn
Bit rate mode : Constant
Bit rate : 384 Kbps
Channel(s) : 6 channels
Channel positions : Front: L C R, Side: L R, LFE
Sampling rate : 48.0 KHz
Bit depth : 16 bits
Compression mode : Lossy
Stream size : 269 MiB (16%)
Alignment : Split accross interleaves
Interleave, duration : 40 ms (1.00 video frame)
Interleave, preload duration : 500 ms


Stahuj/Downlaod:

Jen registrovaní uživatelé mohou vidět odkazy v code. Přihlaste se nebo zaregistrujte ZDARMA.






Kvalita/Quality:

Format : Matroska
Format version : Version 2
File size : 3.03 GiB
Duration : 1h 37mn
Overall bit rate : 4 441 Kbps
Encoded date : UTC 2017-08-29 14:04:18
Writing application : mkvmerge v14.0.0 ('Flow') 64bit
Writing library : libebml v1.3.4 + libmatroska v1.4.5
DURATION : 01:37:46.528000000
NUMBER_OF_FRAMES : 183329
NUMBER_OF_BYTES : 281593344
_STATISTICS_WRITING_APP : mkvmerge v14.0.0 ('Flow') 64bit
_STATISTICS_WRITING_DATE_UTC : 2017-08-29 14:04:18
_STATISTICS_TAGS : BPS DURATION NUMBER_OF_FRAMES NUMBER_OF_BYTES

Video
ID : 1
Format : AVC
Format/Info : Advanced Video Codec
Format profile : [email protected]
Format settings, CABAC : No
Format settings, ReFrames : 2 frames
Codec ID : V_MPEG4/ISO/AVC
Duration : 1h 37mn
Bit rate : 3 968 Kbps
Width : 960 pixels
Height : 532 pixels
Display aspect ratio : 2.40:1
Frame rate mode : Constant
Frame rate : 25.000 fps
Color space : YUV
Chroma subsampling : 4:2:0
Bit depth : 8 bits
Scan type : Progressive
Bits/(Pixel*Frame) : 0.311
Stream size : 2.71 GiB (89%)
Title : TreZzoR
Default : No
Forced : No
Color primaries : BT.709
Transfer characteristics : BT.709
Matrix coefficients : BT.709
DURATION : 01:37:46.480000000
NUMBER_OF_FRAMES : 146662
NUMBER_OF_BYTES : 2973339719
_STATISTICS_WRITING_APP : mkvmerge v14.0.0 ('Flow') 64bit
_STATISTICS_WRITING_DATE_UTC : 2017-08-29 14:04:18
_STATISTICS_TAGS : BPS DURATION NUMBER_OF_FRAMES NUMBER_OF_BYTES

Audio
ID : 2
Format : AC-3
Format/Info : Audio Coding 3
Mode extension : CM (complete main)
Format settings, Endianness : Big
Codec ID : A_AC3
Duration : 1h 37mn
Bit rate mode : Constant
Bit rate : 384 Kbps
Channel(s) : 6 channels
Channel positions : Front: L C R, Side: L R, LFE
Sampling rate : 48.0 KHz
Bit depth : 16 bits
Compression mode : Lossy
Stream size : 269 MiB (9%)
Language : Slovak
Default : Yes
Forced : No


Stahuj/Downlaod:

Jen registrovaní uživatelé mohou vidět odkazy v code. Přihlaste se nebo zaregistrujte ZDARMA.


Heslo/Password:
Jen registrovaní uživatelé mohou vidět odkazy v code. Přihlaste se nebo zaregistrujte ZDARMA.


31 srp 2017, 10:38
Profil
Warman
Warman
Uživatelský avatar

Registrován: 20 led 2008, 15:08
Příspěvky: 1033
Příspěvek Re: Únos (2017)

Re: Únos (2017)




Únos (2017)


WEBRip/SK


Re: Únos (2017) Kidnapping
Re: Únos (2017) Únos



Drama

Slovensko, 2017, 102 min
Režie: Mariana Čengelová-Solčanská
Kamera: Ladislav Janošťák
Hudba: Vladimír Martinka
Hrají: Rebeka Poláková, Milan Mikulčík, Maroš Kramár, Ingrid Timková,
Milan Ondrík, Daniel Heriban, Ján Greššo, Tomáš Hanák, Dávid Hartl,
Vladislav Plevčík, Juraj Hrčka, Eva Pavlíková, Gabriela Dolná,
Katarína Kolajová, Marko Igonda, Andrej Kováč, Kristína Farkašová




Jen registrovaní uživatelé mohou vidět odkazy v code. Přihlaste se nebo zaregistrujte ZDARMA.




Posledný deň prvého roku mladej slovenskej republiky sa chýli ku koncu. Všetci oslavujú. Kráľ podsvetia Efendi,
aj Prezident. Iba Predseda nemá čo oslavovať. Prezident, ktorému on sám vyšliapal chodník k funkcii, odmietne
vymenovať jeho šikovného Chalaniska za ministra. Prezident sa stane nepohodlným. Ako ho prinútiť počúvať, čo chce
Predseda? Prezidentovho syna o niekoľko mesiacov neskôr za bieleho dňa organizovaná skupina zmláti a zavlečie do
zahraničia. Mladý agent Tajnej služby Oskar, gniavený svedomím, sa prizná vyšetrovateľovi, že sa zavlečenia zúčastnil
na príkaz svojich nadriadených. A mafia si počas únosu podala ruky s Tajnými, ktorým šéfuje Predsedov Chalanisko.
Oskar sa v strachu o svoj život s pomocou kamaráta Roba ukryje a zdanlivo sa po ňom zľahne zem. Robovo auto o niekoľko
mesiacov vybuchne a chlapec, jediný kontakt na Oskara, v ňom zhorí zaživa. Marta sa snaží domôcť spravodlivosti pre seba,
pre mŕtveho, pre jeho mamu, pre svojho zavraždeného brata a pre nás všetkých, ktorí sme mlčanlivými svedkami udalostí,
na ktoré nikdy nesmieme zabudnúť...



SCREEN

Re: Únos (2017)

MediaInfo:

General : C:\Film avi\AVI\Únos-WEB-Rip-Sk-2017.avi
Format : AVI at 1 729 kb/s
Length : 1,18 GiB for 1 h 37 min 46 sek. 600 ms

Video #0 : MPEG-4 Visual at 1 584 kb/s
Aspect : 720 x 400 (1.800) at 25.000 fps

Audio #0 : MPEG Audio at 128 kb/s
Infos : 2 kanály, 48,0 kHz



Re: Únos (2017)
Jen registrovaní uživatelé mohou vidět odkazy v code. Přihlaste se nebo zaregistrujte ZDARMA.


Re: Únos (2017)
Jen registrovaní uživatelé mohou vidět odkazy v code. Přihlaste se nebo zaregistrujte ZDARMA.


Re: Únos (2017)
Jen registrovaní uživatelé mohou vidět odkazy v code. Přihlaste se nebo zaregistrujte ZDARMA.


Re: Únos (2017)
Jen registrovaní uživatelé mohou vidět odkazy v code. Přihlaste se nebo zaregistrujte ZDARMA.



Citace:
No Pass!


Keď vám winrar pri rozbalovaní ukáže nesuhlasí crc tak najprv zaškrtnite položku
,,Ponechať poškodené subory"a keď to nepomože tak použite zaznam na opravu,dat je tam 5%.
(v hornej lište Nástroje - Opraviť archív)V tomto prípade WinRar vytvorí opravený súbor,
ktorý začína slovom "fixed".Tento výraz je ale potrebné zmazať po oprave a rozbalit vo win rar.
Alebo použite 7zip ten to rozbali bez problémov!!!


31 srp 2017, 16:47
Profil
Zobrazit příspěvky za předchozí:  Seřadit podle  
Odeslat nové téma Odpovědět na téma  [ Příspěvků: 5 ] 

Všechny časy jsou v UTC + 1 hodina


Nemůžete zakládat nová témata v tomto fóru
Nemůžete odpovídat v tomto fóru
Nemůžete upravovat své příspěvky v tomto fóru
Nemůžete mazat své příspěvky v tomto fóru
Nemůžete přikládat soubory v tomto fóru









StahovaniZaSMS Pizza Modena MP3 free download