fastshare
Mistr Shaolinu / Shao Lin ying xiong bang (1979)
Vypnout statistiky
KATEGORIEPOSLEDNÍ PŘÍSPĚVKYPOSLEDNÍ OZNÁMENÍSTATISTIKY UŽIVATELE
Nick: Anonymous
Příspěvků: 3361
Hodnost: Warman
Varování: 0
---
Právě je 21 črc 2018, 10:55





Všechny časy jsou v UTC + 1 hodina


Pravidla fóra







Odeslat nové téma Odpovědět na téma  [ Příspěvek: 1 ] 
 Mistr Shaolinu / Shao Lin ying xiong bang (1979) 
Autor Zpráva
Major
Major

Registrován: 30 pro 2007, 17:16
Příspěvky: 310
Příspěvek Mistr Shaolinu / Shao Lin ying xiong bang (1979)

Mistr Shaolinu / Shao Lin ying xiong bang (1979)
Video\Zdroj: VHSRip
Audio: CZ

Jen registrovaní uživatelé mohou vidět odkazy v code. Přihlaste se nebo zaregistrujte ZDARMA.


Mistr Shaolinu / Shao Lin ying xiong bang (1979)

Citace:
Format : AVI
File size : 721 MiB
Duration : 1h 15mn
Overall bit rate : 1 340 Kbps

Video
Format : xvid
Duration : 1h 15mn
Bit rate : 1 200 Kbps
Width : 720 pixels
Height : 350 pixels
Display aspect ratio : 2.057
Frame rate : 25.000 fps
Bits/(Pixel*Frame) : 0.191
Stream size : 645 MiB (90%)

Audio
Format : MPEG Audio
Codec ID/Hint : MP3
Duration : 1h 15mn
Bit rate mode : Constant
Bit rate : 128 Kbps
Channel(s) : 2 channels
Sampling rate : 44.1 KHz
Compression mode : Lossy
Stream size : 68.8 MiB (10%)
Alignment : Aligned on interleaves
Interleave, duration : 26 ms (0.65 video frame)
Interleave, preload duration : 26 ms


Fastshare
Jen registrovaní uživatelé mohou vidět odkazy v code. Přihlaste se nebo zaregistrujte ZDARMA.


03 črc 2018, 10:03
Profil
Zobrazit příspěvky za předchozí:  Seřadit podle  
Odeslat nové téma Odpovědět na téma  [ Příspěvek: 1 ] 

Všechny časy jsou v UTC + 1 hodina


Nemůžete zakládat nová témata v tomto fóru
Nemůžete odpovídat v tomto fóru
Nemůžete upravovat své příspěvky v tomto fóru
Nemůžete mazat své příspěvky v tomto fóru
Nemůžete přikládat soubory v tomto fóru









StahovaniZaSMS Pizza Modena MP3 free download