fastshare
Requiem za sen / Requiem For A Dream (2000)
Vypnout statistiky
KATEGORIEPOSLEDNÍ PŘÍSPĚVKYPOSLEDNÍ OZNÁMENÍSTATISTIKY UŽIVATELE
Nick: Anonymous
Příspěvků: 3367
Hodnost: Warman
Varování: 0
---
Právě je 27 kvě 2018, 08:43





Všechny časy jsou v UTC + 1 hodina


Pravidla fóra







Odeslat nové téma Odpovědět na téma  [ Příspěvků: 3 ] 
 Requiem za sen / Requiem For A Dream (2000) 
Autor Zpráva
Warrant
Warrant

Registrován: 04 říj 2010, 11:40
Příspěvky: 188
Příspěvek Requiem za sen / Requiem For A Dream (2000)

Requiem za sen / Requiem for a Dream (2000)

Requiem za sen / Requiem For A Dream (2000)

CSFD / IMDb:
Jen registrovaní uživatelé mohou vidět odkazy v code. Přihlaste se nebo zaregistrujte ZDARMA.


Citace:
Director: Darren Aronofsky
Stars: Ellen Burstyn, Jared Leto and Jennifer Connelly

Ovdovělá Sara Goldfarbová žije na Coney Island a snadno podléhá mámení televizních pořadů. Právě teď drží dietu, aby se mohla účastnit jedné ze show. Její milý ale bezmocný syn Harry má novou přítelkyni Marion a společně se snaží čelit bolestné realitě útěkem do snů. Ani Harryho nejlepší přítel Tyrone, který se živí prodejem drog, nemá snadný život. A tak se čtveřice lidí, jimž osud nepřál štěstí, točí v bludném kruhu bezmoci a beznaděje.


Requiem.for.a.Dream.2000.720p.BRrip.XviD.AC3-WarBro

iNFO:
Citace:
  • Format : AVI at 3 544 Kbps
  • Length : 2,51 GiB for 1h 41mn 32s 927ms
  • Video #0 : MPEG-4 Visual at 3 085 Kbps
  • Aspect : 1280 x 720 (1.778) at 23.976 fps
  • Audio #0 : AC-3 at 448 Kbps
  • Infos : 6 channels, 48,0 KHz
  • Language : Czech
  • Subtitles : None


SCREENS:
Requiem za sen / Requiem For A Dream (2000) Requiem za sen / Requiem For A Dream (2000) Requiem za sen / Requiem For A Dream (2000)

DOWNLOAD: DELETED


Naposledy upravil ladan dne 12 úno 2013, 01:22, celkově upraveno 1
Smazány nefunkční odkazy


26 črc 2012, 19:31
Profil
Warman
Warman

Registrován: 16 črc 2011, 10:59
Příspěvky: 1169
Příspěvek Re: Requiem za sen / Requiem For A Dream (2000)


Requiem za sen (2000)


Requiem.for.a.Dream.2000.BDRip.XviD.AC3.CZ-Starcross

Re: Requiem za sen / Requiem For A Dream (2000)

Jen registrovaní uživatelé mohou vidět odkazy v code. Přihlaste se nebo zaregistrujte ZDARMA.

Jazyk: 5.1 Cz
Titulky: Ne
Kdy a kde: USA, 2000
Délka: 101 min.
Žánr: Drama

704:384; 16:9
XviD, Celkový BitRate: 2 689 Kbps
AC3, 6 kanály/448 Kbps
23.976 fps, 48 Khz
1,91 GB


Re: Requiem za sen / Requiem For A Dream (2000)

Ovdovělá Sara Goldfarbová žije na Coney Island a snadno podléhá mámení televizních pořadů. Právě teď drží dietu, aby se mohla účastnit jedné ze show. Její milý ale bezmocný syn Harry má novou přítelkyni Marion a společně se snaží čelit bolestné realitě útěkem do snů. Ani Harryho nejlepší přítel Tyrone, který se živí prodejem drog, nemá snadný život. A tak se čtveřice lidí, jimž osud nepřál štěstí, točí v bludném kruhu bezmoci a beznaděje.


euroshare:
Jen registrovaní uživatelé mohou vidět odkazy v code. Přihlaste se nebo zaregistrujte ZDARMA.

share-rapid:
Jen registrovaní uživatelé mohou vidět odkazy v code. Přihlaste se nebo zaregistrujte ZDARMA.

fastshare:
Jen registrovaní uživatelé mohou vidět odkazy v code. Přihlaste se nebo zaregistrujte ZDARMA.

V případě potřeby udělám re-upload


15 črc 2013, 08:31
Profil
Major
Major

Registrován: 30 pro 2007, 17:16
Příspěvky: 301
Příspěvek Re: Requiem za sen / Requiem For A Dream (2000)

Requiem za sen / Requiem for a Dream (2000)
DVDRip CZ

Re: Requiem za sen / Requiem For A Dream (2000)

Jen registrovaní uživatelé mohou vidět odkazy v code. Přihlaste se nebo zaregistrujte ZDARMA.


Citace:
Format : AVI
Format/Info : Audio Video Interleave
File size : 797 MiB
Duration : 1h 37mn
Overall bit rate : 1 149 Kbps

Video
ID : 0
Format : MPEG-4 Visual
Format profile : Advanced [email protected]
Format settings, BVOP : 2
Format settings, Matrix : Default (H.263)
Codec ID/Hint : XviD
Duration : 1h 37mn
Bit rate : 1 009 Kbps
Width : 640 pixels
Height : 360 pixels
Display aspect ratio : 16:9
Frame rate : 25.000 fps
Color space : YUV
Chroma subsampling : 4:2:0
Bit depth : 8 bits
Scan type : Progressive
Compression mode : Lossy
Bits/(Pixel*Frame) : 0.175
Stream size : 700 MiB (88%)

Audio
ID : 1
Format : MPEG Audio
Format version : Version 1
Format profile : Layer 3
Codec ID/Hint : MP3
Duration : 1h 37mn
Bit rate mode : Constant
Bit rate : 128 Kbps
Channel(s) : 2 channels
Sampling rate : 44.1 KHz
Compression mode : Lossy
Stream size : 88.8 MiB (11%)
Interleave, duration : 26 ms (0.65 video frame)


Fastshare
Jen registrovaní uživatelé mohou vidět odkazy v code. Přihlaste se nebo zaregistrujte ZDARMA.


18 srp 2013, 19:41
Profil
Zobrazit příspěvky za předchozí:  Seřadit podle  
Odeslat nové téma Odpovědět na téma  [ Příspěvků: 3 ] 

Všechny časy jsou v UTC + 1 hodina


Nemůžete zakládat nová témata v tomto fóru
Nemůžete odpovídat v tomto fóru
Nemůžete upravovat své příspěvky v tomto fóru
Nemůžete mazat své příspěvky v tomto fóru
Nemůžete přikládat soubory v tomto fóru









StahovaniZaSMS Pizza Modena MP3 free download