fastshare
Rocky II (1979)
Vypnout statistiky
KATEGORIEPOSLEDNÍ PŘÍSPĚVKYPOSLEDNÍ OZNÁMENÍSTATISTIKY UŽIVATELE
Nick: Anonymous
Příspěvků: 3367
Hodnost: Warman
Varování: 0
---
Právě je 24 čer 2018, 09:58





Všechny časy jsou v UTC + 1 hodina


Pravidla fóra







Odeslat nové téma Odpovědět na téma  [ Příspěvků: 11 ] 
 Rocky II (1979) 
Autor Zpráva
V.I.P.
V.I.P.
Uživatelský avatar

Registrován: 30 srp 2006, 08:57
Příspěvky: 1566
Bydliště: Warcenter
Příspěvek Rocky II (1979)


    Rocky II (1979)

    Rocky II (1979)

    Rocky II (1979)

Jen registrovaní uživatelé mohou vidět odkazy v code. Přihlaste se nebo zaregistrujte ZDARMA.

Jen registrovaní uživatelé mohou vidět odkazy v code. Přihlaste se nebo zaregistrujte ZDARMA.


Jen registrovaní uživatelé mohou vidět odkazy v code. Přihlaste se nebo zaregistrujte ZDARMA.


_________________


15 kvě 2009, 12:33
Profil
Private 1 st class
Private 1 st class

Registrován: 29 kvě 2009, 16:19
Příspěvky: 18
Příspěvek Re: Rocky II (1979)

ROCKY 2

Re: Rocky II (1979)

Re: Rocky II (1979)

Jen registrovaní uživatelé mohou vidět odkazy v code. Přihlaste se nebo zaregistrujte ZDARMA.


Password : warsmash


18 črc 2009, 13:47
Profil
Master Sergant
Master Sergant
Uživatelský avatar

Registrován: 01 zář 2009, 15:26
Příspěvky: 136
Příspěvek Re: Rocky II (1979)

Rocky 2

Jazyk: Český
Velikost: 709MB
Formát: AVI
Žánr: Akční / Drama / Sportovní

Re: Rocky II (1979)


Re: Rocky II (1979)
Citace:
Tesne po zápase, ktorým sme sa lúčili v prvom diele, sú Rocky a Apollo odvezení do nemocnice. I keď pre rozhodcov bol
Apollo víťaz, on si stále myslí, že Rockyho neporazil. Chystá odvetu... Zatiaľ čo Rocky má odlišné plány. Po prepustení z nemocnice požiadal Adrianu o ruku, kúpil veľký dom, auto, chystá sa usadiť a dať boxu na chvíľu pokoj. Ale postupne začína byť bez peňazí. Snaží si zarobiť akoto len ide, no bez úspechov. Nakoniec Apollovu výzvu prijíma. Môže začať tréning, ktorý tento raz musí byť tvrdší, dlhší a náročnejší, pretože Apollo berie víťaztvo na Rockym ako jedinú možnosť skončenia zápasu. -CSFD-


Re: Rocky II (1979)
Jen registrovaní uživatelé mohou vidět odkazy v code. Přihlaste se nebo zaregistrujte ZDARMA.


14 lis 2009, 12:54
Profil
Private 1 st class
Private 1 st class

Registrován: 13 kvě 2009, 09:58
Příspěvky: 16
Příspěvek Re: Rocky II (1979)

Rocky II


Velikost:---------692 MB

Délka:------------1:52:04

Video:-----------avi, divx, 25 fps, 704 kbps

Audio:----------160 kbps, 44kHz

Zvuk:----------- CZ



)..(
SHARE-RAPID

Jen registrovaní uživatelé mohou vidět odkazy v code. Přihlaste se nebo zaregistrujte ZDARMA.


:--:
NO!!!


Naposledy upravil StoneCZE dne 01 bře 2012, 22:18, celkově upraveno 1

15 úno 2010, 11:23
Profil
Corporal
Corporal

Registrován: 24 dub 2008, 17:51
Příspěvky: 66
Příspěvek Re: Rocky II (1979)

Rocky II (1979) CZ

Re: Rocky II (1979)

INFO:
Jen registrovaní uživatelé mohou vidět odkazy v code. Přihlaste se nebo zaregistrujte ZDARMA.


ČSFD:
Jen registrovaní uživatelé mohou vidět odkazy v code. Přihlaste se nebo zaregistrujte ZDARMA.



Akční / Drama / Sportovní
USA, 1979, 114 min

Popis:
Tesne po zápase, ktorým sme sa lúčili v prvom diele, sú Rocky a Apollo odvezení do nemocnice. I keď pre rozhodcov bol Apollo víťaz, on si stále myslí, že Rockyho neporazil. Chystá odvetu... Zatiaľ čo Rocky má odlišné plány. Po prepustení z nemocnice požiadal Adrianu o ruku, kúpil veľký dom, auto, chystá sa usadiť a dať boxu na chvíľu pokoj. Ale postupne začína byť bez peňazí. Snaží si zarobiť akoto len ide, no bez úspechov. Nakoniec Apollovu výzvu prijíma. Môže začať tréning, ktorý tento raz musí byť tvrdší, dlhší a náročnejší, pretože Apollo berie víťaztvo na Rockym ako jedinú možnosť skončenia zápasu.

Linky:

Jen registrovaní uživatelé mohou vidět odkazy v code. Přihlaste se nebo zaregistrujte ZDARMA.


NO PASS!!!


10 dub 2010, 11:14
Profil
Warman
Warman
Uživatelský avatar

Registrován: 25 lis 2008, 11:02
Příspěvky: 6584
Příspěvek Re: Rocky II (1979)

Rocky II / Rocky II (1979)
Re: Rocky II (1979)

Re: Rocky II (1979)
Jen registrovaní uživatelé mohou vidět odkazy v code. Přihlaste se nebo zaregistrujte ZDARMA.

Citace:
Obsah:
Akční / Drama / Sportovní

USA, 1979, 114 min
Režie:
Sylvester Stallone
Hrají: Sylvester Stallone, Talia Shire, Burt Young, Carl Weathers, Burgess Meredith, Tony Burton, Joe Spinell, Frank McRae, Bill Baldwin, Paul McCrane, Charles Winkler, Frank Stallone, Taurean Blacque

Tesne po zápase, ktorým sme sa lúčili v prvom diele, sú Rocky a Apollo odvezení do nemocnice. I keď pre rozhodcov bol Apollo víťaz, on si stále myslí, že Rockyho neporazil. Chystá odvetu... Zatiaľ čo Rocky má odlišné plány. Po prepustení z nemocnice požiadal Adrianu o ruku, kúpil veľký dom, auto, chystá sa usadiť a dať boxu na chvíľu pokoj. Ale postupne začína byť bez peňazí. Snaží si zarobiť akoto len ide, no bez úspechov. Nakoniec Apollovu výzvu prijíma. Môže začať tréning, ktorý tento raz musí byť tvrdší, dlhší a náročnejší, pretože Apollo berie víťaztvo na Rockym ako jedinú možnosť skončenia zápasu.

Re: Rocky II (1979)

Re: Rocky II (1979)
Citace:
General
Complete name : Z:\DVD UPLOAD\Rocky 2 (1979).avi
Format : AVI
Format/Info : Audio Video Interleave
File size : 693 MiB
Duration : 1h 52mn
Overall bit rate : 864 Kbps
Writing library : AVI OpenDML FlasKMPEG plugin release

Video
ID : 0
Format : MPEG-4 Visual
Format profile : Advanced [email protected]
Format settings, BVOP : Yes
Format settings, QPel : No
Format settings, GMC : No warppoints
Format settings, Matrix : Default (H.263)
Muxing mode : Packed bitstream
Codec ID : XVID
Codec ID/Hint : XviD
Duration : 1h 52mn
Bit rate : 698 Kbps
Width : 720 pixels
Height : 416 pixels
Display aspect ratio : 16:9
Frame rate : 25.000 fps
Color space : YUV
Chroma subsampling : 4:2:0
Bit depth : 8 bits
Scan type : Progressive
Bits/(Pixel*Frame) : 0.093
Stream size : 560 MiB (81%)
Writing library : XviD 1.2.0SMP (UTC 2006-01-08)

Audio
ID : 1
Format : MPEG Audio
Format version : Version 1
Format profile : Layer 3
Mode : Joint stereo
Codec ID : 55
Codec ID/Hint : MP3
Duration : 1h 52mn
Bit rate mode : Constant
Bit rate : 160 Kbps
Channel(s) : 2 channels
Sampling rate : 48.0 KHz
Stream size : 128 MiB (19%)
Alignment : Split accross interleaves
Interleave, duration : 200 ms (5.00 video frames)


Re: Rocky II (1979)
Jen registrovaní uživatelé mohou vidět odkazy v code. Přihlaste se nebo zaregistrujte ZDARMA.


Bez hesla
Přidán záznam na opravu dat 5%


24 dub 2011, 21:53
Profil
Master Sergant
Master Sergant

Registrován: 25 úno 2010, 15:09
Příspěvky: 158
Příspěvek Re: Rocky II (1979)

ROCKY 2

Re: Rocky II (1979)

http://www.csfd.cz/film/8660-rocky-ii/

Akční / Drama / Sportovní
USA, 1979, 114 min

Režie: Sylvester Stallone
Hudba: Bill Conti
Hrají: Sylvester Stallone, Talia Shire, Burt Young, Carl Weathers, Burgess Meredith, Tony Burton, Joe Spinell, Frank McRae, Bill Baldwin, Paul McCrane, Charles Winkler, Frank Stallone, Taurean Blacque

Obsah
Tesne po zápase, ktorým sme sa lúčili v prvom diele, sú Rocky a Apollo odvezení do nemocnice. I keď pre rozhodcov bol Apollo víťaz, on si stále myslí, že Rockyho neporazil. Chystá odvetu... Zatiaľ čo Rocky má odlišné plány. Po prepustení z nemocnice požiadal Adrianu o ruku, kúpil veľký dom, auto, chystá sa usadiť a dať boxu na chvíľu pokoj. Ale postupne začína byť bez peňazí. Snaží si zarobiť akoto len ide, no bez úspechov. Nakoniec Apollovu výzvu prijíma. Môže začať tréning, ktorý tento raz musí byť tvrdší, dlhší a náročnejší, pretože Apollo berie víťaztvo na Rockym ako jedinú možnosť skončenia zápasu.

Citace:
Všeobecné
Délka 112:05
Celkový bitrate 860kbps
Typ média riff
Obraz
Rozlišení 720x416
Bitrate 700kbps(vbr)
Kodek XviD MPEG-4 (www.xvid.org)
Zvuk
Bitrate 160kbps (cbr)
Kanály 2 (stereo)
Kodek MPEG Layer-3
Vzorkovací frekvence 48000


Jen registrovaní uživatelé mohou vidět odkazy v code. Přihlaste se nebo zaregistrujte ZDARMA.


Jen registrovaní uživatelé mohou vidět odkazy v code. Přihlaste se nebo zaregistrujte ZDARMA.


15 čer 2011, 07:56
Profil
Private 1 st class
Private 1 st class

Registrován: 13 kvě 2009, 09:58
Příspěvky: 16
Příspěvek Re: Rocky II (1979)

Rocky II


Velikost:---------692 MB

Délka:------------1:52:04

Video:-----------avi, divx, 25 fps, 704 kbps

Audio:----------160 kbps, 44kHz

Zvuk:----------- CZ



)..(
SHARE-RAPID

Jen registrovaní uživatelé mohou vidět odkazy v code. Přihlaste se nebo zaregistrujte ZDARMA.


:--:
NO!!!


01 bře 2012, 22:20
Profil
Private 1 st class
Private 1 st class

Registrován: 11 črc 2010, 18:36
Příspěvky: 21
Příspěvek Re: Rocky II (1979)

Re: Rocky II (1979)

__.__

Akční / Drama / Sportovní
USA, 1979, 114 min

Rocky si zápasem s Apollem Creedem v prvním dílu vydělal slušné peníze a tak může Adrian dopřát nový dům, auto a také ji požádá o ruku. Maluje si skvělou budoucnost. Ale jak to tak chodí, peníze se rychle rozkutálejí a slavný boxer si přivydělává ve staré tělocvičně, kde začínal, uklízením nepořádku po jiných a dostává se mu výsměchu a ponížení. Apollo Creed mezitím dostává anonymní dopisy a jeho děti čelí napadání, protože si veřejnost myslí, že první zápas s Rockym byl zmanipulován. Creed chce proto nový zápas, aby jednou provždy ukončil spekulace o tom, kdo je pravý šampion. Rocky nejprve odmítá díky slibu, který dal Adrianě. Ale po narození syna ho sama jeho žena podpoří a řekne mu, aby do zápasu šel a Apolla porazil. Balboa dostane obrovskou chuť a odhodlání postavit se znovu světové jedničce a začíná slavný, nezapomenutelný souboj.

Citace:
General
Format : AVI
Format/Info : Audio Video Interleave
File size : 693 MiB
Duration : 1h 52mn
Overall bit rate : 864 Kbps

Video #0
ID : 0
Format : MPEG-4 Visual
Format profile : Advanced [email protected]
Format settings, BVOP : 2
Format settings, QPel : No
Format settings, GMC : No warppoints
Format settings, Matrix : Default (H.263)
Muxing mode : Packed bitstream
Codec ID : XVID
Codec ID/Hint : XviD
Duration : 1h 52mn
Bit rate : 698 Kbps
Width : 720 pixels
Height : 416 pixels
Display aspect ratio : 16:9
Frame rate : 25.000 fps
Color space : YUV
Chroma subsampling : 4:2:0
Bit depth : 8 bits
Scan type : Progressive
Compression mode : Lossy
Bits/(Pixel*Frame) : 0.093
Stream size : 560 MiB (81%)
Writing library : XviD 1.2.0SMP (UTC 2006-01-08)

Audio #1
ID : 1
Format : MPEG Audio
Format version : Version 1
Format profile : Layer 3
Mode : Joint stereo
Codec ID : 55
Codec ID/Hint : MP3
Duration : 1h 52mn
Bit rate mode : Constant
Bit rate : 160 Kbps
Channel(s) : 2 channels
Sampling rate : 48.0 KHz
Compression mode : Lossy
Stream size : 128 MiB (19%)
Alignment : Split accross interleaves
Interleave, duration : 200 ms (5.00 video frames)


)..(

Jen registrovaní uživatelé mohou vidět odkazy v code. Přihlaste se nebo zaregistrujte ZDARMA.


16 dub 2012, 22:56
Profil
Colonel
Colonel
Uživatelský avatar

Registrován: 06 říj 2010, 05:41
Příspěvky: 369
Příspěvek Re: Rocky II (1979)

Rocky II (1979)

Re: Rocky II (1979)

Re: Rocky II (1979)

Re: Rocky II (1979)

Jen registrovaní uživatelé mohou vidět odkazy v code. Přihlaste se nebo zaregistrujte ZDARMA.


Re: Rocky II (1979)

Akční / Drama / Sportovní
USA, 1979, 114 min

Režie: Sylvester Stallone
Hudba: Bill Conti
Hrají: Sylvester Stallone, Talia Shire, Burt Young, Carl Weathers, Burgess Meredith, Tony Burton, Joe Spinell, Frank McRae, Bill Baldwin, Paul McCrane, Charles Winkler, Frank Stallone, Taurean Blacque

Tesne po zápase, ktorým sme sa lúčili v prvom diele, sú Rocky a Apollo odvezení do nemocnice. I keď pre rozhodcov bol Apollo víťaz, on si stále myslí, že Rockyho neporazil. Chystá odvetu... Zatiaľ čo Rocky má odlišné plány. Po prepustení z nemocnice požiadal Adrianu o ruku, kúpil veľký dom, auto, chystá sa usadiť a dať boxu na chvíľu pokoj. Ale postupne začína byť bez peňazí. Snaží si zarobiť akoto len ide, no bez úspechov. Nakoniec Apollovu výzvu prijíma. Môže začať tréning, ktorý tento raz musí byť tvrdší, dlhší a náročnejší, pretože Apollo berie víťaztvo na Rockym ako jedinú možnosť skončenia zápasu.


Re: Rocky II (1979)

Velikost: 692.81 MB

Všeobecné
Délka 112:05
Celkový bitrate 860kbps
Typ média riff
Obraz
Rozlišení 720x416
Bitrate 700kbps(vbr)
Kodek XviD MPEG-4
Zvuk
Bitrate 160kbps (cbr)
Kanály 2 (stereo)
Kodek MPEG Layer-3
Vzorkovací frekvence 48000


Re: Rocky II (1979)

Re: Rocky II (1979)

Re: Rocky II (1979)

Jen registrovaní uživatelé mohou vidět odkazy v code. Přihlaste se nebo zaregistrujte ZDARMA.


Jen registrovaní uživatelé mohou vidět odkazy v code. Přihlaste se nebo zaregistrujte ZDARMA.


Jen registrovaní uživatelé mohou vidět odkazy v code. Přihlaste se nebo zaregistrujte ZDARMA.


07 úno 2013, 12:47
Profil
Colonel 5 th class
Colonel 5 th class
Uživatelský avatar

Registrován: 19 srp 2011, 00:35
Příspěvky: 631
Příspěvek Re: Rocky II (1979)

Rocky II / Rocky II CZ, ENG + CZ, ENG Tit. (1979) 1080p BluRay
Rocky.II.Rocky.II.CZ.ENG.1979.1080p.BrRip.x264.YIFY.(CZmicroHD)
Re: Rocky II (1979)
Re: Rocky II (1979)
Jen registrovaní uživatelé mohou vidět odkazy v code. Přihlaste se nebo zaregistrujte ZDARMA.
Akční / Drama / Sportovní

USA, 1979, 114 min
Režie:
Sylvester Stallone
Scénář:
Sylvester Stallone
Kamera:
Bill Butler
Hudba:
Bill Conti
Hrají:
Sylvester Stallone, Talia Shire, Burt Young, Carl Weathers, Burgess Meredith, Tony Burton, Joe Spinell, Frank McRae, Bill Baldwin, Paul McCrane, Charles Winkler, Frank Stallone, Taurean Blacque, Rutanya Alda
MediaInfo
Citace:
Format : Matroska
File size : 1.82 GiB
Duration : 2h 0mn
Overall bit rate : 2 162 Kbps
Movie name : Rocky II (1979)
Encoded date : UTC 2014-05-23 16:16:02
Writing application : mkvmerge v6.7.0 ('Back to the Ground') 32bit built on Jan 8 2014 15:03:17
Writing library : libebml v1.3.0 + libmatroska v1.4.1

Video
ID : 1
Format : AVC
Format/Info : Advanced Video Codec
Format profile : [email protected]
Format settings, CABAC : Yes
Format settings, ReFrames : 4 frames
Codec ID : V_MPEG4/ISO/AVC
Duration : 2h 0mn
Nominal bit rate : 1 704 Kbps
Width : 1 920 pixels
Height : 1 040 pixels
Display aspect ratio : 16:9
Frame rate : 23.976 fps
Color space : YUV
Chroma subsampling : 4:2:0
Bit depth : 8 bits
Scan type : Progressive
Bits/(Pixel*Frame) : 0.036
Writing library : x264 core 120 r2164 da19765
Encoding settings : cabac=1 / ref=4 / deblock=1:-2:-1 / analyse=0x3:0x133 / me=umh / subme=9 / psy=1 / psy_rd=1.00:0.15 / mixed_ref=1 / me_range=16 / chroma_me=1 / trellis=2 / 8x8dct=1 / cqm=0 / deadzone=21,11 / fast_pskip=1 / chroma_qp_offset=-3 / threads=6 / sliced_threads=0 / nr=0 / decimate=1 / interlaced=0 / bluray_compat=0 / constrained_intra=0 / bframes=3 / b_pyramid=2 / b_adapt=2 / b_bias=0 / direct=3 / weightb=1 / open_gop=0 / weightp=2 / keyint=240 / keyint_min=23 / scenecut=40 / intra_refresh=0 / rc_lookahead=60 / rc=2pass / mbtree=1 / bitrate=1704 / ratetol=1.0 / qcomp=0.60 / qpmin=10 / qpmax=51 / qpstep=4 / cplxblur=20.0 / qblur=0.5 / ip_ratio=1.40 / aq=1:1.00
Language : English

Audio #1
ID : 2
Format : AAC
Format/Info : Advanced Audio Codec
Format profile : LC
Codec ID : A_AAC
Duration : 2h 0mn
Channel(s) : 2 channels
Channel positions : Front: L R
Sampling rate : 48.0 KHz
Compression mode : Lossy
Language : English

Audio #2
ID : 4
Format : AC-3
Format/Info : Audio Coding 3
Mode extension : CM (complete main)
Codec ID : A_AC3
Duration : 2h 0mn
Bit rate mode : Constant
Bit rate : 384 Kbps
Channel(s) : 6 channels
Channel positions : Front: L C R, Side: L R, LFE
Sampling rate : 48.0 KHz
Bit depth : 16 bits
Compression mode : Lossy
Stream size : 331 MiB (18%)
Title : 5.1
Language : Czech

Text #1
ID : 3
Format : UTF-8
Codec ID : S_TEXT/UTF8
Codec ID/Info : UTF-8 Plain Text
Language : English

Text #2
ID : 5
Format : UTF-8
Codec ID : S_TEXT/UTF8
Codec ID/Info : UTF-8 Plain Text
Language : Czech
Download FastShare
Jen registrovaní uživatelé mohou vidět odkazy v code. Přihlaste se nebo zaregistrujte ZDARMA.
Download Ulož.to
Jen registrovaní uživatelé mohou vidět odkazy v code. Přihlaste se nebo zaregistrujte ZDARMA.
Info
Citace:
Prosím bez reuploadu na FastShare a Ulož.to. Děkuji.


26 kvě 2014, 18:10
Profil
Zobrazit příspěvky za předchozí:  Seřadit podle  
Odeslat nové téma Odpovědět na téma  [ Příspěvků: 11 ] 

Všechny časy jsou v UTC + 1 hodina


Nemůžete zakládat nová témata v tomto fóru
Nemůžete odpovídat v tomto fóru
Nemůžete upravovat své příspěvky v tomto fóru
Nemůžete mazat své příspěvky v tomto fóru
Nemůžete přikládat soubory v tomto fóru









StahovaniZaSMS Pizza Modena MP3 free download