fastshare
Rocky V (1990)
Vypnout statistiky
KATEGORIEPOSLEDNÍ PŘÍSPĚVKYPOSLEDNÍ OZNÁMENÍSTATISTIKY UŽIVATELE
Nick: Anonymous
Příspěvků: 3361
Hodnost: Warman
Varování: 0
---
Právě je 20 srp 2018, 01:59





Všechny časy jsou v UTC + 1 hodina


Pravidla fóra







Odeslat nové téma Odpovědět na téma  [ Příspěvků: 17 ]  Přejít na stránku Předchozí  1, 2
 Rocky V (1990) 
Autor Zpráva
Colonel
Colonel
Uživatelský avatar

Registrován: 06 říj 2010, 05:41
Příspěvky: 369
Příspěvek Re: Rocky V (1990)

Rocky V / Rocky V (1990)

Re: Rocky V (1990)

Re: Rocky V (1990)

Re: Rocky V (1990)

Jen registrovaní uživatelé mohou vidět odkazy v code. Přihlaste se nebo zaregistrujte ZDARMA.


Re: Rocky V (1990)

Drama / Sportovní / Akční

USA, 1990, 100 min
Režie: John G. Avildsen
Hrají: Sylvester Stallone, Talia Shire, Burt Young, Sage Stallone, Burgess Meredith, Tommy Morrison, Tony Burton, Kevin Connolly, Delia Sheppard, Lloyd Kaufman, Michael Pataki

Rocky Balboa zápasí v Moskvě. Zpočátku má jeho soupeř navrch, nakonec ale Rocky sebere všechny své síly a zvítězí. Je ale zcela vyčerpán a stane se mu podivná věc: po zápase nemůže ovládnout silný třes rukou. Adrian na něho naléhá, aby navštívil lékaře. Tam se Rocky dozví, že vzhledem k velkému počtu ran, které utržil za dobu své kariéry, má nebezpečně poškozený mozek. Adrian trvá na tom, aby Rocky s boxerskou kariérou okamžitě skončil. Právě v té době však Rockyho účetní pomocí falešné plné moci jeho jménem zpronevěří milion dolarů a Rocky musí prodat téměř veškerý svůj majetek. S Adrian a synem Rockym se vrací do míst, kde poprvé zvítězil v boxu. Kvůli penězům chce Rocky opět začít boxovat, nakonec vyslyší prosby nadějného mladého boxera Tommyho a stává se jeho manažerem


Re: Rocky V (1990)

Format : AVI
Format/Info : Audio Video Interleave
File size : 690 MiB
Duration : 1h 39mn
Overall bit rate : 966 Kbps
Writing library : AVI OpenDML FlasKMPEG plugin release

Video
ID : 0
Format : MPEG-4 Visual
Format profile : Advanced [email protected]
Format settings, BVOP : Yes
Format settings, QPel : No
Format settings, GMC : No warppoints
Format settings, Matrix : Default (H.263)
Muxing mode : Packed bitstream
Codec ID : XVID
Codec ID/Hint : XviD
Duration : 1h 39mn
Bit rate : 800 Kbps
Width : 720 pixels
Height : 416 pixels
Display aspect ratio : 16:9
Frame rate : 25.000 fps
Color space : YUV
Chroma subsampling : 4:2:0
Bit depth : 8 bits
Scan type : Progressive
Bits/(Pixel*Frame) : 0.107
Stream size : 571 MiB (83%)
Writing library : XviD 1.2.0SMP (UTC 2006-01-08)

Audio
ID : 1
Format : MPEG Audio
Format version : Version 1
Format profile : Layer 3
Mode : Joint stereo
Mode extension : MS Stereo
Codec ID : 55
Codec ID/Hint : MP3
Duration : 1h 39mn
Bit rate mode : Constant
Bit rate : 160 Kbps
Channel(s) : 2 channels
Sampling rate : 48.0 KHz
Stream size : 114 MiB (17%)
Alignment : Split accross interleaves
Interleave, duration : 200 ms (5.00 video frames)


Re: Rocky V (1990)

Re: Rocky V (1990)

Re: Rocky V (1990)

Jen registrovaní uživatelé mohou vidět odkazy v code. Přihlaste se nebo zaregistrujte ZDARMA.


Jen registrovaní uživatelé mohou vidět odkazy v code. Přihlaste se nebo zaregistrujte ZDARMA.


Jen registrovaní uživatelé mohou vidět odkazy v code. Přihlaste se nebo zaregistrujte ZDARMA.


07 úno 2013, 13:28
Profil
Colonel 5 th class
Colonel 5 th class
Uživatelský avatar

Registrován: 19 srp 2011, 00:35
Příspěvky: 631
Příspěvek Re: Rocky V (1990)

Rocky V / Rocky V CZ, ENG + CZ, ENG Tit. (1990) 1080p BluRay
Rocky.V.Rocky.V.CZ.ENG.1990.1080p.BrRip.x264.YIFY.(CZmicroHD)
Re: Rocky V (1990)
Re: Rocky V (1990)
Jen registrovaní uživatelé mohou vidět odkazy v code. Přihlaste se nebo zaregistrujte ZDARMA.
Drama / Sportovní / Akční

USA, 1990, 100 min
Režie:
John G. Avildsen
Scénář:
Sylvester Stallone
Kamera:
Steven Poster
Hudba:
Bill Conti
Hrají:
Sylvester Stallone, Talia Shire, Burt Young, Sage Stallone, Burgess Meredith, Tommy Morrison, Richard Gant, Tony Burton, Kevin Connolly, Delia Sheppard, Lloyd Kaufman, Michael Pataki, John Timmons, Joe Sabatino, Danny Epper, Ben Piazza, Dale Jacoby
MediaInfo
Citace:
Format : Matroska
File size : 1.68 GiB
Duration : 1h 44mn
Overall bit rate : 2 304 Kbps
Movie name : Rocky V (1990)
Encoded date : UTC 2014-05-24 16:40:04
Writing application : mkvmerge v6.7.0 ('Back to the Ground') 32bit built on Jan 8 2014 15:03:17
Writing library : libebml v1.3.0 + libmatroska v1.4.1

Video
ID : 1
Format : AVC
Format/Info : Advanced Video Codec
Format profile : [email protected]
Format settings, CABAC : Yes
Format settings, ReFrames : 4 frames
Format settings, GOP : M=4, N=53
Codec ID : V_MPEG4/ISO/AVC
Duration : 1h 44mn
Nominal bit rate : 1 826 Kbps
Width : 1 920 pixels
Height : 1 040 pixels
Display aspect ratio : 16:9
Frame rate : 23.976 fps
Color space : YUV
Chroma subsampling : 4:2:0
Bit depth : 8 bits
Scan type : Progressive
Bits/(Pixel*Frame) : 0.038
Writing library : x264 core 120 r2164 da19765
Encoding settings : cabac=1 / ref=3 / deblock=1:-2:-1 / analyse=0x3:0x113 / me=hex / subme=7 / psy=1 / psy_rd=1.00:0.00 / mixed_ref=1 / me_range=16 / chroma_me=1 / trellis=1 / 8x8dct=1 / cqm=0 / deadzone=21,11 / fast_pskip=1 / chroma_qp_offset=-2 / threads=6 / sliced_threads=0 / nr=0 / decimate=1 / interlaced=0 / bluray_compat=0 / constrained_intra=0 / bframes=3 / b_pyramid=2 / b_adapt=1 / b_bias=0 / direct=1 / weightb=1 / open_gop=0 / weightp=2 / keyint=240 / keyint_min=23 / scenecut=40 / intra_refresh=0 / rc_lookahead=40 / rc=2pass / mbtree=1 / bitrate=1826 / ratetol=1.0 / qcomp=0.60 / qpmin=10 / qpmax=51 / qpstep=4 / cplxblur=20.0 / qblur=0.5 / ip_ratio=1.40 / aq=1:1.00
Language : English

Audio #1
ID : 2
Format : AAC
Format/Info : Advanced Audio Codec
Format profile : LC
Codec ID : A_AAC
Duration : 1h 44mn
Channel(s) : 2 channels
Channel positions : Front: L R
Sampling rate : 48.0 KHz
Compression mode : Lossy
Language : English

Audio #2
ID : 4
Format : AC-3
Format/Info : Audio Coding 3
Mode extension : CM (complete main)
Codec ID : A_AC3
Duration : 1h 44mn
Bit rate mode : Constant
Bit rate : 384 Kbps
Channel(s) : 6 channels
Channel positions : Front: L C R, Side: L R, LFE
Sampling rate : 48.0 KHz
Bit depth : 16 bits
Compression mode : Lossy
Delay relative to video : 1s 800ms
Stream size : 286 MiB (17%)
Title : 5.1
Language : Czech

Text #1
ID : 3
Format : UTF-8
Codec ID : S_TEXT/UTF8
Codec ID/Info : UTF-8 Plain Text
Language : English

Text #2
ID : 5
Format : UTF-8
Codec ID : S_TEXT/UTF8
Codec ID/Info : UTF-8 Plain Text
Language : Czech
Download FastShare
Jen registrovaní uživatelé mohou vidět odkazy v code. Přihlaste se nebo zaregistrujte ZDARMA.
Download Ulož.to
Jen registrovaní uživatelé mohou vidět odkazy v code. Přihlaste se nebo zaregistrujte ZDARMA.
Info
Citace:
Prosím bez reuploadu na FastShare a Ulož.to. Děkuji.


26 kvě 2014, 19:09
Profil
Zobrazit příspěvky za předchozí:  Seřadit podle  
Odeslat nové téma Odpovědět na téma  [ Příspěvků: 17 ]  Přejít na stránku Předchozí  1, 2

Všechny časy jsou v UTC + 1 hodina


Nemůžete zakládat nová témata v tomto fóru
Nemůžete odpovídat v tomto fóru
Nemůžete upravovat své příspěvky v tomto fóru
Nemůžete mazat své příspěvky v tomto fóru
Nemůžete přikládat soubory v tomto fóru









StahovaniZaSMS Pizza Modena MP3 free download