fastshare
Madhouse (2004)
Vypnout statistiky
KATEGORIEPOSLEDNÍ PŘÍSPĚVKYPOSLEDNÍ OZNÁMENÍSTATISTIKY UŽIVATELE
Nick: Anonymous
Příspěvků: 3361
Hodnost: Warman
Varování: 0
---
Právě je 18 lis 2018, 05:36





Všechny časy jsou v UTC + 1 hodina


Pravidla fóra







Odeslat nové téma Odpovědět na téma  [ Příspěvků: 5 ] 
 Madhouse (2004) 
Autor Zpráva
Private 1 st class
Private 1 st class

Registrován: 27 říj 2007, 09:06
Příspěvky: 24
Příspěvek Madhouse (2004)

Madhouse (2004)
Format : AVI
File size : 706 MiB
PlayTime : 1h 27mn
Movie name :.DVDRip
Writing application : Lavf51.12.2
Product : MADHOUSE
Codec : XviD
Family : MPEG-4
Info : XviD project
PlayTime : 1h 27mn
Width : 1024
Height : 576
Aspect ratio : 16/9
Frame rate : 25 fps
Codec : AC3
Info : Dolby AC3
Bit rate : 224 Kbps
Bit rate mode : CBR
Channel(s) : 2 / 2 channels
Sampling rate : 48 KHz
Madhouse
Madhouse

Horor / Thriller
USA, 2004, 91 min

Režie: William Butler
Hrají: Jordan Ladd, Lance Henriksen, Natasha Lyonne, Joshua Leonard
Slavná éra kliniky "Cunningham Hall", kdysi proslulého ústavu pro duševně choré, je u konce. Nadbytek pacientů a nedostatek financí proměnily váženou instituci v zanedbaný páchnoucí blázinec. Prach v zatuchlých nemocničních chodbách rozvíří příchod nesmělého studenta medicíny Clarka (JOSHUA LEONARD - Záhada Blair Witch). Krátce po jeho nástupu jsou brutálně zavražděni lékař a vrchní sestra. Mezi pacienty se množí záchvaty zuřivého šílenství. Clarka pronásledují příšerné vidiny. Zdá se, že jediným člověkem, který má klíč k tajemství kliniky, je Ben, zaživa pohřbený v podzemí ústavu, v "díře" mezi beznadějnými případy...
Jen registrovaní uživatelé mohou vidět odkazy v code. Přihlaste se nebo zaregistrujte ZDARMA.

Jen registrovaní uživatelé mohou vidět odkazy v code. Přihlaste se nebo zaregistrujte ZDARMA.

heslo maries11


27 říj 2007, 17:13
Profil
Private 1 st class
Private 1 st class

Registrován: 24 lis 2008, 18:55
Příspěvky: 19
Příspěvek Madhouse 2004

Madhouse 2004
Madhouse 2004
CSFD
Jen registrovaní uživatelé mohou vidět odkazy v code. Přihlaste se nebo zaregistrujte ZDARMA.

INFO
Jen registrovaní uživatelé mohou vidět odkazy v code. Přihlaste se nebo zaregistrujte ZDARMA.

File Size………668mb
Madhouse 2004
.:_._:.
Jen registrovaní uživatelé mohou vidět odkazy v code. Přihlaste se nebo zaregistrujte ZDARMA.

Madhouse 2004
.:_._:.
Jen registrovaní uživatelé mohou vidět odkazy v code. Přihlaste se nebo zaregistrujte ZDARMA.
bez hesla


31 pro 2008, 13:25
Profil
Uploader
Uploader

Registrován: 31 srp 2008, 22:37
Příspěvky: 531
Příspěvek Re: Madhouse (2004)

Madhouse (2004) CZ

Re: Madhouse (2004)


Info:
Slavná éra kliniky "Cunningham Hall", kdysi proslulého ústavu pro duševně choré, je u konce. Nadbytek pacientů a nedostatek financí proměnily váženou instituci v zanedbaný páchnoucí blázinec. Prach v zatuchlých nemocničních chodbách rozvíří příchod nesmělého studenta medicíny Clarka (JOSHUA LEONARD - Záhada Blair Witch). Krátce po jeho nástupu jsou brutálně zavražděni lékař a vrchní sestra. Mezi pacienty se množí záchvaty zuřivého šílenství. Clarka pronásledují příšerné vidiny. Zdá se, že jediným člověkem, který má klíč k tajemství kliniky, je Ben, zaživa pohřbený v podzemí ústavu, v "díře" mezi beznadějnými případy...

CSFD:
Jen registrovaní uživatelé mohou vidět odkazy v code. Přihlaste se nebo zaregistrujte ZDARMA.


Kvalita:
Jen registrovaní uživatelé mohou vidět odkazy v code. Přihlaste se nebo zaregistrujte ZDARMA.



Screeny:
Jen registrovaní uživatelé mohou vidět odkazy v code. Přihlaste se nebo zaregistrujte ZDARMA.



Link:
Jen registrovaní uživatelé mohou vidět odkazy v code. Přihlaste se nebo zaregistrujte ZDARMA.


Pass:
Jen registrovaní uživatelé mohou vidět odkazy v code. Přihlaste se nebo zaregistrujte ZDARMA.


12 bře 2009, 17:20
Profil
Private
Private

Registrován: 08 úno 2010, 21:09
Příspěvky: 1
Příspěvek Re: Madhouse (2004)

Prosíím na czshare by to nebylo??


14 bře 2010, 18:41
Profil
Warman
Warman
Uživatelský avatar

Registrován: 25 lis 2008, 11:02
Příspěvky: 6583
Příspěvek Re: Madhouse (2004)

Madhouse (2004)
Re: Madhouse (2004)

Re: Madhouse (2004)
Jen registrovaní uživatelé mohou vidět odkazy v code. Přihlaste se nebo zaregistrujte ZDARMA.

Citace:
Obsah:
Horor / Thriller

USA, 2004, 91 min
Režie: William Butler
Hrají: Joshua Leonard, Jordan Ladd, Lance Henriksen, Natasha Lyonne, Leslie Jordan, Mark Holton, Patrika Darbo, Rudy Rosenfeld, Loredana Groza


Slavná éra kliniky "Cunningham Hall", kdysi proslulého ústavu pro duševně choré, je u konce. Nadbytek pacientů a nedostatek financí proměnily váženou instituci v zanedbaný páchnoucí blázinec. Prach v zatuchlých nemocničních chodbách rozvíří příchod nesmělého studenta medicíny Clarka (JOSHUA LEONARD - Záhada Blair Witch). Krátce po jeho nástupu jsou brutálně zavražděni lékař a vrchní sestra. Mezi pacienty se množí záchvaty zuřivého šílenství. Clarka pronásledují příšerné vidiny. Zdá se, že jediným člověkem, který má klíč k tajemství kliniky, je Ben, zaživa pohřbený v podzemí ústavu, v "díře" mezi beznadějnými případy...

Re: Madhouse (2004)

Re: Madhouse (2004)
Citace:
General
Complete name : Z:\DVD UPLOAD\Madhouse (2004).avi
Format : AVI
Format/Info : Audio Video Interleave
File size : 681 MiB
Duration : 1h 26mn
Overall bit rate : 1 095 Kbps
Movie name : MADHOUSE
Writing application : MEncoder dev-SVN-r26492-4.2.3
Writing library : MPlayer

Video
ID : 0
Format : MPEG-4 Visual
Format profile : [email protected]
Format settings, BVOP : No
Format settings, QPel : No
Format settings, GMC : No warppoints
Format settings, Matrix : Default (H.263)
Codec ID : DIVX
Codec ID/Info : Project Mayo
Codec ID/Hint : DivX 4
Duration : 1h 26mn
Bit rate : 954 Kbps
Width : 640 pixels
Height : 360 pixels
Display aspect ratio : 16:9
Frame rate : 25.000 fps
Color space : YUV
Chroma subsampling : 4:2:0
Bit depth : 8 bits
Scan type : Progressive
Bits/(Pixel*Frame) : 0.166
Stream size : 594 MiB (87%)
Writing library : Lavc51.55.0

Audio
ID : 1
Format : MPEG Audio
Format version : Version 1
Format profile : Layer 3
Mode : Joint stereo
Mode extension : MS Stereo
Codec ID : 55
Codec ID/Hint : MP3
Duration : 1h 26mn
Bit rate mode : Constant
Bit rate : 128 Kbps
Channel(s) : 2 channels
Sampling rate : 48.0 KHz
Stream size : 79.6 MiB (12%)
Alignment : Aligned on interleaves
Interleave, duration : 24 ms (0.60 video frame)
Interleave, preload duration : 816 ms


Re: Madhouse (2004)
Jen registrovaní uživatelé mohou vidět odkazy v code. Přihlaste se nebo zaregistrujte ZDARMA.


Bez hesla
Přidán záznam na opravu dat 5%


23 dub 2011, 20:14
Profil
Zobrazit příspěvky za předchozí:  Seřadit podle  
Odeslat nové téma Odpovědět na téma  [ Příspěvků: 5 ] 

Všechny časy jsou v UTC + 1 hodina


Nemůžete zakládat nová témata v tomto fóru
Nemůžete odpovídat v tomto fóru
Nemůžete upravovat své příspěvky v tomto fóru
Nemůžete mazat své příspěvky v tomto fóru
Nemůžete přikládat soubory v tomto fóru









StahovaniZaSMS Pizza Modena MP3 free download