fastshare
MacGyver: Cesta do zkázy (1994)
Vypnout statistiky
KATEGORIEPOSLEDNÍ PŘÍSPĚVKYPOSLEDNÍ OZNÁMENÍSTATISTIKY UŽIVATELE
Nick: Anonymous
Příspěvků: 3361
Hodnost: Warman
Varování: 0
---
Právě je 22 črc 2018, 10:04





Všechny časy jsou v UTC + 1 hodina


Pravidla fóra







Odeslat nové téma Odpovědět na téma  [ Příspěvků: 2 ] 
 MacGyver: Cesta do zkázy (1994) 
Autor Zpráva
Sergeant
Sergeant

Registrován: 29 srp 2008, 08:28
Příspěvky: 110
Příspěvek MacGyver: Cesta do zkázy (1994)

MacGyver: Cesta do zkázy / MacGyver:Trail to Doomsday (1994)

MacGyver: Cesta do zkázy (1994)

Jen registrovaní uživatelé mohou vidět odkazy v code. Přihlaste se nebo zaregistrujte ZDARMA.


Akční / Dobrodružný
USA, 1994, 93 min

Režie: Charles Correll
Hrají: Richard Dean Anderson, Peter Egan, Alun Armstrong, Lena Headey, Nicholas Farrell


MacGyver: Cesta do zkázy je poslední "rozloučení" s Angusem MacGyverem. Tentokrát se ústřední hrdiny ocití v Anglii, kam je pozván svým přítelem na oslavu. Ta ale brzy skončí střelbou, při které je MacGyverův přítel Paul zabit. To, ho ale nenechá chladným a rozhodne se objasnit důvod vraždy.

Citace:
Format : AVI
Format/Info : Audio Video Interleave
File size : 808 MiB
Duration : 1h 32mn
Overall bit rate : 1 221 Kbps
Writing application : VirtualDubMod 1.5.10.2 (build 2540/release)
Writing library : VirtualDubMod build 2540/release
Video #0
ID : 0
Format : MPEG-4 Visual
Format settings, BVOP : Yes
Format settings, QPel : No
Format settings, GMC : No warppoints
Format settings, Matrix : Default (H.263)
Muxing mode : Packed bitstream
Codec ID : DX50
Codec ID/Hint : DivX 5
Duration : 1h 32mn
Bit rate : 951 Kbps
Width : 640 pixels
Height : 448 pixels
Display aspect ratio : 1.429
Frame rate : 25.000 fps
Resolution : 24 bits
Colorimetry : 4:2:0
Scan type : Progressive
Bits/(Pixel*Frame) : 0.133
Stream size : 629 MiB (78%)
Writing library : DivX 5.0.4 (UTC 2003-04-17)
Audio #1
ID : 1
Format : MPEG Audio
Format version : Version 1
Format profile : Layer 3
Codec ID : 55
Codec ID/Hint : MP3
Duration : 1h 32mn
Bit rate mode : Constant
Bit rate : 128 Kbps
Channel(s) : 1 channel
Sampling rate : 44.1 KHz
Resolution : 16 bits
Stream size : 84.7 MiB (10%)
Alignment : Split accross interleaves
Interleave, duration : 40 ms (1.00 video frame)
Interleave, preload duration : 500 ms
Audio #2
ID : 2
Format : MPEG Audio
Format version : Version 1
Format profile : Layer 3
Codec ID : 55
Codec ID/Hint : MP3
Duration : 1h 32mn
Bit rate mode : Constant
Bit rate : 128 Kbps
Channel(s) : 1 channel
Sampling rate : 44.1 KHz
Resolution : 16 bits
Stream size : 84.7 MiB (10%)
Alignment : Split accross interleaves
Interleave, duration : 40 ms (1.00 video frame)
Interleave, preload duration : 500 ms


MacGyver: Cesta do zkázy (1994)
Jen registrovaní uživatelé mohou vidět odkazy v code. Přihlaste se nebo zaregistrujte ZDARMA.

_________________
Pokuď bude nějaký problém s linkama napište mi SZ.Na dotazy v tématech neodpovídam.

Koupím kódy od CocaColy, Fanty a Sprite za cenu 4GB kreditu na Czshare za kód


Naposledy upravil Shelby GT500 dne 18 srp 2012, 22:58, celkově upraveno 1
Smazány mrtvé linky.


03 dub 2010, 17:24
Profil
Colonel
Colonel
Uživatelský avatar

Registrován: 04 led 2008, 11:56
Příspěvky: 391
Příspěvek Re: MacGyver: Cesta do zkázy (1994)

MacGyver:Cesta do skazy / MacGyver:Trail to Doomsday / 1994

Jen registrovaní uživatelé mohou vidět odkazy v code. Přihlaste se nebo zaregistrujte ZDARMA.
/

Akční / Dobrodružný
USA, 1994, 93 min

Režie: Michael Vejar
Hrají: Richard Dean Anderson, Brian Blessed, Sophie Ward, Christian Burgess, Oliver Ford Davies, Tim Woodward, Kevork Malikyan, Hugh Quarshie

Dobrodružný snímek - Macgyver (Richard Dean Anderson) spolu s vědcem Atlantisem Atikusem (Brian Blessed) a kolegyní Kelly (Sophie Ward) najdou medailon, který je zároveň klíčem k Solonově truhlici v níž je uložena Pochodeň pravdy. Ta je může zavést k dobrodružství odkrývající tajemství Věže strachu, kde je již po staletí ukrytý poklad Atlantidy. Film je plný nástrach, které Macgyver lehce překonává svými důmyslnými nápady...

zdroj VHS jazyk CZ

Video: DivX 3 352x288 25.00fps [Stream 00]
Audio: MPEG Audio Layer 3 44100Hz stereo 192Kbps [01) Audio Stream]

Jen registrovaní uživatelé mohou vidět odkazy v code. Přihlaste se nebo zaregistrujte ZDARMA.


Naposledy upravil Shelby GT500 dne 18 srp 2012, 22:58, celkově upraveno 1
Smazány mrtvé linky.


16 zář 2010, 09:12
Profil
Zobrazit příspěvky za předchozí:  Seřadit podle  
Odeslat nové téma Odpovědět na téma  [ Příspěvků: 2 ] 

Všechny časy jsou v UTC + 1 hodina


Nemůžete zakládat nová témata v tomto fóru
Nemůžete odpovídat v tomto fóru
Nemůžete upravovat své příspěvky v tomto fóru
Nemůžete mazat své příspěvky v tomto fóru
Nemůžete přikládat soubory v tomto fóru









StahovaniZaSMS Pizza Modena MP3 free download