fastshare
Marečku, podejte mi pero! (1976)
Vypnout statistiky
KATEGORIEPOSLEDNÍ PŘÍSPĚVKYPOSLEDNÍ OZNÁMENÍSTATISTIKY UŽIVATELE
Nick: Anonymous
Příspěvků: 3361
Hodnost: Warman
Varování: 0
---
Právě je 22 zář 2018, 04:35





Všechny časy jsou v UTC + 1 hodina


Pravidla fóra







Odeslat nové téma Odpovědět na téma  [ Příspěvků: 4 ] 
 Marečku, podejte mi pero! (1976) 
Autor Zpráva
Lieutenant
Lieutenant

Registrován: 10 srp 2008, 15:06
Příspěvky: 224
Příspěvek Re: Marečku, podejte mi pero! (1976)

vymazané


Naposledy upravil minkoa dne 10 led 2014, 14:50, celkově upraveno 1

25 kvě 2012, 16:43
Profil
Colonel 3 rd class
Colonel 3 rd class
Uživatelský avatar

Registrován: 18 kvě 2009, 19:54
Příspěvky: 500
Příspěvek Re: Marečku, podejte mi pero! (1976)

Re: Marečku, podejte mi pero! (1976)

Jiří Kroupa, mistr v továrně na zemědělské stroje, by mohl povýšit - musel by ovšem vystudovat večerní průmyslovku. Pan Kroupa se tomu vehementně brání, nakonec však podlehne naléhání členů dílenského výboru a na školu se dá zapsat. Stejný vzdělávací ústav navštěvuje i jeho syn, přes den dokonce sedává v téže lavici. Náhle se ukazuje, že tatínek má mnohem horší prospěch než jeho ratolest. Dokáže si rodič napravit reputaci a obstát před profesory i spolužáky?

Jen registrovaní uživatelé mohou vidět odkazy v code. Přihlaste se nebo zaregistrujte ZDARMA.


Kvalita

Re: Marečku, podejte mi pero! (1976)

Download

share-rapid

Jen registrovaní uživatelé mohou vidět odkazy v code. Přihlaste se nebo zaregistrujte ZDARMA.


fastshare

Jen registrovaní uživatelé mohou vidět odkazy v code. Přihlaste se nebo zaregistrujte ZDARMA.


hellshare

Jen registrovaní uživatelé mohou vidět odkazy v code. Přihlaste se nebo zaregistrujte ZDARMA.

_________________
Mé DVD uploady jsou čisté kopie originálů, bez komprese.


24 dub 2013, 20:22
Profil
Lieutenant
Lieutenant

Registrován: 10 srp 2008, 15:06
Příspěvky: 224
Příspěvek Re: Marečku, podejte mi pero! (1976)

Marečku, podejte mi pero!


Komedie
Československo, 1976, 93 min

Jiří Sovák, Míla Myslíková, Jiří Schmitzer, Václav Lohniský, Iva Janžurová, Josef Kemr, Ladislav Smoljak, Zdeněk Svěrák, František Kovářík, Josef Abrhám, Taťjana Medvecká, Jan Skopeček, Milena Dvorská, Marie Motlová, Jaroslava Obermaierová, František Filipovský, Jiří Hálek, Petr Nárožný, Vladimír Hrabánek, Jiří Lír, Libuše Švormová, Vladimír Hrubý, Václav Trégl, Oldřich Velen, Darja Hajská, Roman Čada, Markéta Čaňková, Petr Brukner, Jaroslav Weigel, Zdeněk Srstka, Pavel Vondruška, Václav Kotva, Tomáš Holý, Jaroslav Vozáb, Eduard Pavlíček, Mojmír Drahota, Gabriela Osvaldová, Milan Bouška, Jan Dvořák, Lydie Havláková, Daniela Kopecká, Jiří Kosek, Miluše Pěnkavová, Leoš Slavkovský, David Smoljak, Martin Učík, Marcel Vašinka, Vlasta Žehrová, Karel Fiala, Václav David, Jiří Flíček, Marie Petrová, Naděžda Slavkovská, Eva Strychová, Václav Špidla, Miloš Švarc, Jaromír Vogel, František Zeman, Soňa Vlčková, Otto Hudrlík, Viktor Rindler, Libuše Štědrá, Olga Michálková, Milada Kadeřábková, Erich Fichtner, Květuše Zemanová, Jiřina Bílá, Josef Střecha, Karel Bodnár, Miloš Větvička, Miroslav Vrba, Martin Mahdal

Re: Marečku, podejte mi pero! (1976)

Jen registrovaní uživatelé mohou vidět odkazy v code. Přihlaste se nebo zaregistrujte ZDARMA.



Fastshare.cz

Download+Informácie o súbore

Jen registrovaní uživatelé mohou vidět odkazy v code. Přihlaste se nebo zaregistrujte ZDARMA.


Marečku,podejte mi pero! (2900).avi (2018 MB)
Audio: 2 channels | 192 Kbps Constant
Video: 720×540px – 4 | DivX 5 (AVI) | 2 899 Kbps | 25.000 fps



Bez hesla


10 led 2014, 14:49
Profil
Major
Major

Registrován: 30 pro 2007, 17:16
Příspěvky: 344
Příspěvek Re: Marečku, podejte mi pero! (1976)

„Marečku, podejte mi pero!“ (1976)

Re: Marečku, podejte mi pero! (1976)

Jen registrovaní uživatelé mohou vidět odkazy v code. Přihlaste se nebo zaregistrujte ZDARMA.


Citace:
Format : AVI
File size : 701 MiB
Duration : 1h 31mn
Overall bit rate mode : Variable
Overall bit rate : 1 076 Kbps

Video
Format : MPEG-4 Visual
Codec ID : XVID
Duration : 1h 31mn
Bit rate : 947 Kbps
Width : 720 pixels
Height : 406 pixels
Display aspect ratio : 16:9
Frame rate : 25.000 fps
Color space : YUV
Chroma subsampling : 4:2:0
Bit depth : 8 bits
Scan type : Progressive
Compression mode : Lossy
Bits/(Pixel*Frame) : 0.130
Stream size : 617 MiB (88%)

Audio
Format : MPEG Audio
Codec ID/Hint : MP3
Duration : 1h 31mn
Bit rate mode : Variable
Bit rate : 116 Kbps
Nominal bit rate : 128 Kbps
Channel(s) : 2 channels
Sampling rate : 44.1 KHz
Compression mode : Lossy
Delay relative to video : 26ms
Stream size : 75.8 MiB (11%)
Alignment : Split accross interleaves
Interleave, duration : 26 ms (0.65 video frame)
Interleave, preload duration : 538 ms


Fastshare
Jen registrovaní uživatelé mohou vidět odkazy v code. Přihlaste se nebo zaregistrujte ZDARMA.


02 črc 2018, 14:48
Profil
Zobrazit příspěvky za předchozí:  Seřadit podle  
Odeslat nové téma Odpovědět na téma  [ Příspěvků: 4 ] 

Všechny časy jsou v UTC + 1 hodina


Nemůžete zakládat nová témata v tomto fóru
Nemůžete odpovídat v tomto fóru
Nemůžete upravovat své příspěvky v tomto fóru
Nemůžete mazat své příspěvky v tomto fóru
Nemůžete přikládat soubory v tomto fóru









StahovaniZaSMS Pizza Modena MP3 free download