fastshare
Pějme píseň dohola (1991)
Vypnout statistiky
KATEGORIEPOSLEDNÍ PŘÍSPĚVKYPOSLEDNÍ OZNÁMENÍSTATISTIKY UŽIVATELE
Nick: Anonymous
Příspěvků: 3385
Hodnost: Warman
Varování: 0
---
Právě je 20 lis 2017, 03:23





Všechny časy jsou v UTC + 1 hodina


Pravidla fóra







Odeslat nové téma Odpovědět na téma  [ Příspěvků: 3 ] 
 Pějme píseň dohola (1991) 
Autor Zpráva
Private
Private

Registrován: 23 kvě 2009, 22:17
Příspěvky: 10
Příspěvek Pějme píseň dohola (1991)

Pejme pisen dohola 1991 DVB rip
Příloha:
e17ee9380a97c0c512512e289c28cbe7.jpg

Komedie
Československo, 1991, 103 min

Režie: Ondřej Trojan
Hrají: Václav Chalupa, Jiří Strach, Aňa Geislerová

Stupidní epopej na důsledné bázi socialistického realizmu z prostředí pionýrského tábora. Téměř zletilý Ondra se chce stát co nejdříve dospělým v sexuální oblasti...

Kód:

Jen registrovaní uživatelé mohou vidět odkazy v code. Přihlaste se nebo zaregistrujte ZDARMA.



General
Complete name : D:\PROGRAMY\jdownloader_0.4233\JDownloader 0.6.193\downloads\pejme pisen dohola.AVI
Format : AVI
Format/Info : Audio Video Interleave
File size : 989 MiB
Duration : 1h 43mn
Overall bit rate : 1 334 Kbps

Video
Format : MPEG-4 Visual
Format profile : Streaming [email protected]
Format settings, BVOP : Yes
Format settings, QPel : No
Format settings, GMC : No warppoints
Format settings, Matrix : Default (H.263)
Muxing mode : Packed bitstream
Codec ID : XVID
Codec ID/Hint : XviD
Duration : 1h 43mn
Bit rate : 1 199 Kbps
Width : 576 pixels
Height : 432 pixels
Display aspect ratio : 4/3
Frame rate : 25.000 fps
Resolution : 24 bits
Colorimetry : 4:2:0
Scan type : Progressive
Bits/(Pixel*Frame) : 0.193
Stream size : 889 MiB (90%)
Writing library : XviD 1.2.0.dev47 (UTC 2006-11-01)

Audio
Format : AC-3
Format/Info : Audio Coding 3
Codec ID : 2000
Duration : 1h 43mn
Bit rate mode : Constant
Bit rate : 128 Kbps
Channel(s) : 2 channels
Channel positions : L R
Sampling rate : 48.0 KHz
Stream size : 94.9 MiB (10%)
Alignment : Split accross interleaves
Interleave, duration : 1000 ms (25.00 video frames)

Poznámka moderátora

Link je funkční jen na Hellshare


)..(
Jen registrovaní uživatelé mohou vidět odkazy v code. Přihlaste se nebo zaregistrujte ZDARMA.


Nemáte oprávnění prohlížet přiložené soubory.


Naposledy upravil zick-zack dne 24 srp 2014, 14:06, celkově upraveno 1
Smazáno RE


02 črc 2009, 18:31
Profil
Private 2 nd class
Private 2 nd class
Uživatelský avatar

Registrován: 11 kvě 2009, 09:40
Příspěvky: 40
Příspěvek Re: Pějme píseň dohola (1991)

Pějme píseň dohola DVDRip 5.1AC3 H265 1990
__.__
Jen registrovaní uživatelé mohou vidět odkazy v code. Přihlaste se nebo zaregistrujte ZDARMA.


)..(
Jen registrovaní uživatelé mohou vidět odkazy v code. Přihlaste se nebo zaregistrujte ZDARMA.


Bonus k filmu - Rozhovor s Ondřejem Trojanem, Janem Hřebejkem, Petrem Jarchovským a Annou Geislerovou
Jen registrovaní uživatelé mohou vidět odkazy v code. Přihlaste se nebo zaregistrujte ZDARMA.

Videoklip od skupiny Zikkurat
Jen registrovaní uživatelé mohou vidět odkazy v code. Přihlaste se nebo zaregistrujte ZDARMA.


Naposledy upravil Czechtronics dne 19 zář 2017, 18:40, celkově upraveno 2

06 zář 2017, 13:02
Profil
Private
Private
Uživatelský avatar

Registrován: 02 říj 2009, 11:23
Příspěvky: 4
Příspěvek Re: Pějme píseň dohola (1991)

PLS REUP


17 zář 2017, 19:12
Profil
Zobrazit příspěvky za předchozí:  Seřadit podle  
Odeslat nové téma Odpovědět na téma  [ Příspěvků: 3 ] 

Všechny časy jsou v UTC + 1 hodina


Nemůžete zakládat nová témata v tomto fóru
Nemůžete odpovídat v tomto fóru
Nemůžete upravovat své příspěvky v tomto fóru
Nemůžete mazat své příspěvky v tomto fóru
Nemůžete přikládat soubory v tomto fóru









StahovaniZaSMS Pizza Modena MP3 free download