fastshare
Vítejte v džungli / Rundown, The (2003)
Vypnout statistiky
KATEGORIEPOSLEDNÍ PŘÍSPĚVKYPOSLEDNÍ OZNÁMENÍSTATISTIKY UŽIVATELE
Nick: Anonymous
Příspěvků: 3383
Hodnost: Warman
Varování: 0
---
Právě je 24 lis 2017, 17:31





Všechny časy jsou v UTC + 1 hodina


Pravidla fóra







Odeslat nové téma Odpovědět na téma  [ Příspěvků: 12 ] 
 Vítejte v džungli / Rundown, The (2003) 
Autor Zpráva
Private
Private

Registrován: 03 led 2008, 21:27
Příspěvky: 8
Příspěvek Vítejte v džungli / Rundown, The (2003)

.


Naposledy upravil konema dne 16 led 2010, 09:24, celkově upraveno 2

19 kvě 2008, 14:47
Profil
Private
Private

Registrován: 26 říj 2007, 19:03
Příspěvky: 7
Příspěvek Vítej v džungli/The Rundown (2003)

Popis filmu:
V drsné a nelítostné městské džungli jménem Los Angeles žije Beck (THE ROCK) - muž, který je ochoten použít jakékoliv prostředky k tomu, aby získal věc, pro kterou ho jeho klient poslal. Ať už jde o pozdní platbu nebo vzácný prsten, Beck nedělá rozdíly a dle svého hesla tak ať už to máme za sebou se za pomocí fyzické síly snaží práci co nejdříve dokončit. Beck nikdy nevyhledává potíže a jen velmi nerad je dělá ostatním. Naneštěstí je řešení potíží právě to, kvůli čemu si jej lidé najímají a Becka čeká poslední velký problém, který musí vyřešit, aby mohl svůj dosavadní styl života konečně hodit za hlavu. A stejně jako amazonská džungle, do které je vyslán svůj poslední úkol splnit, je jeho úloha velmi spletitá.
Jádrem všech problémů je upovídaný podvodník Travis (SEANN WILLIAM SCOTT), jehož otec Becka najmul, aby přerušil synova divoká dobrodružství v Brazílii. Travis se však ukáže být ještě větším potížistou, než Beck čekal, a to nejen díky své výřečnosti a neustálým sklonům k útěku, ale také dalším dvěma komplikacím, které s sebou přináší: praktické Marianě (ROSARIO DAWSON), která zná odpovědi na některé ze skrytých tajemství džungle, a despotickému Hatcherovi (CHRISTOPHER WALKEN), který změnil džungli a její obyvatele ve své vlastní zlatonosné impérium. Beck musí využít všech svých schopností, aby se dokázal vypořádat se svým přidrzlým společníkem, tajemnou dívkou, psychopatickým tyranem, nadrženými opicemi, halucinogenním ovocem, zákeřnými rebely, nebezpečným terénem, skrytými pastmi a všemi dalšími překážkami, které mu prostředí brazilské džungle staví do cesty.
Kvalita filmu:
ČESKÝ DUBING
Vítej v džungli/The Rundown (2003)
ukázky z filmu:
Vítej v džungli/The Rundown (2003)
Trailer:

Spustit video na YouTube.com
http://youtube.com/watch?v=http://www.youtube.com/watch?v=o45zDyaMmsI

linky:
Jen registrovaní uživatelé mohou vidět odkazy v code. Přihlaste se nebo zaregistrujte ZDARMA.

heslo:
Jen registrovaní uživatelé mohou vidět odkazy v code. Přihlaste se nebo zaregistrujte ZDARMA.


14 kvě 2009, 18:50
Profil
Private
Private

Registrován: 31 bře 2009, 16:37
Příspěvky: 11
Příspěvek Vítejte v džungli / Rundown, The

Vítejte v džungli / Rundown, The

__.__

General
Complete name : Vítejte v džungli
Format : AVI
Format/Info : Audio Video Interleave
File size : 732 MiB
Duration : 1h 39mn
Overall bit rate : 1 023 Kbps
Video
Format : MPEG-4 Visual
Format settings, BVOP : Yes
Format settings, QPel : No
Format settings, GMC : No warppoints
Format settings, Matrix : Default
Codec ID : DX50
Codec ID/Hint : DivX 5
Duration : 1h 39mn
Bit rate : 821 Kbps
Width : 664 pixels
Height : 354 pixels
Display aspect ratio : 1.876
Frame rate : 25.000 fps
Resolution : 24 bits
Colorimetry : 4:2:0
Scan type : Progressive
Bits/(Pixel*Frame) : 0.140
Stream size : 587 MiB (80%)
Writing library : DivX 6.4.0 (UTC 2006-10-03)
Audio
Format : MPEG Audio
Format version : Version 1
Format profile : Layer 3
Codec ID : 55
Codec ID/Hint : MP3
Duration : 1h 39mn
Bit rate mode : Constant
Bit rate : 192 Kbps
Channel(s) : 2 channels
Sampling rate : 44.1 KHz
Resolution : 16 bits
Video delay : 26ms
Stream size : 137 MiB (19%)
Alignment : Split accross interleaves
Interleave, duration : 40 ms (1.00 video frame)
Title : Audio Stream
Writing library : LAME3.97 (beta)

)..(



Jen registrovaní uživatelé mohou vidět odkazy v code. Přihlaste se nebo zaregistrujte ZDARMA.




Jen registrovaní uživatelé mohou vidět odkazy v code. Přihlaste se nebo zaregistrujte ZDARMA.




Jen registrovaní uživatelé mohou vidět odkazy v code. Přihlaste se nebo zaregistrujte ZDARMA.

_________________
i_m_a_g_e

R.A.D.U.S. : Rychlý Automat na Demolici a Usurpování Slabých


22 kvě 2009, 18:04
Profil
Master Sergant
Master Sergant

Registrován: 21 kvě 2009, 05:34
Příspěvky: 132
Příspěvek Re: Vítejte v džungli / Rundown, The (2003)

Re: Vítejte v džungli / Rundown, The (2003)

Re: Vítejte v džungli / Rundown, The (2003) Vitajte v džungli
Re: Vítejte v džungli / Rundown, The (2003) Rundown, The

__.__
Jen registrovaní uživatelé mohou vidět odkazy v code. Přihlaste se nebo zaregistrujte ZDARMA.


Akční / Dobrodružný / Komedie / Thriller
USA, 2003, 104 min

Režie: Peter Berg
Hrají: Dwayne Johnson, Seann William Scott, Rosario Dawson, Christopher Walken, Jon Gries, Ernie Reyes Jr., Jamal Duff, Ewen Bremner, Arnold Schwarzenegger

V drsné a nelítostné městské džungli jménem Los Angeles žije Beck (THE ROCK) - muž, který je ochoten použít jakékoliv prostředky k tomu, aby získal věc, pro kterou ho jeho klient poslal. Ať už jde o pozdní platbu nebo vzácný prsten, Beck nedělá rozdíly a dle svého hesla tak ať už to máme za sebou se za pomocí fyzické síly snaží práci co nejdříve dokončit. Beck nikdy nevyhledává potíže a jen velmi nerad je dělá ostatním. Naneštěstí je řešení potíží právě to, kvůli čemu si jej lidé najímají a Becka čeká poslední velký problém, který musí vyřešit, aby mohl svůj dosavadní styl života konečně hodit za hlavu. A stejně jako amazonská džungle, do
které je vyslán svůj poslední úkol splnit, je jeho úloha velmi spletitá.

Jádrem všech problémů je upovídaný podvodník Travis (SEANN WILLIAM SCOTT), jehož otec Becka najmul, aby přerušil synova divoká dobrodružství v Brazílii. Travis se však ukáže být ještě větším potížistou, než Beck čekal, a to nejen díky své výřečnosti a neustálým sklonům k útěku, ale také dalším dvěma komplikacím, které s sebou přináší: praktické Marianě (ROSARIO DAWSON), která zná odpovědi na některé ze skrytých tajemství džungle, a despotickému Hatcherovi (CHRISTOPHER WALKEN), který změnil džungli a její obyvatele ve své vlastní zlatonosné impérium. Beck musí využít všech svých schopností, aby se dokázal vypořádat se svým přidrzlým společníkem, tajemnou dívkou, psychopatickým tyranem, nadrženými opicemi, halucinogenním ovocem, zákeřnými rebely, nebezpečným terénem, skrytými pastmi a všemi dalšími překážkami, které mu prostředí brazilské džungle staví do cesty.

:-_-:
Re: Vítejte v džungli / Rundown, The (2003)

)..(
Jen registrovaní uživatelé mohou vidět odkazy v code. Přihlaste se nebo zaregistrujte ZDARMA.


alebo

Jen registrovaní uživatelé mohou vidět odkazy v code. Přihlaste se nebo zaregistrujte ZDARMA.


:--:
Jen registrovaní uživatelé mohou vidět odkazy v code. Přihlaste se nebo zaregistrujte ZDARMA.


Naposledy upravil Andrea993 dne 05 zář 2009, 21:39, celkově upraveno 4

18 črc 2009, 20:43
Profil
Private
Private
Uživatelský avatar

Registrován: 30 pro 2007, 22:43
Příspěvky: 6
Příspěvek Re: Vítejte v džungli / Rundown, The (2003)

muj upload 700MB
Jen registrovaní uživatelé mohou vidět odkazy v code. Přihlaste se nebo zaregistrujte ZDARMA.


18 srp 2009, 08:56
Profil
Master Sergant
Master Sergant
Uživatelský avatar

Registrován: 13 bře 2009, 18:06
Příspěvky: 142
Bydliště: Doma
Příspěvek Re: Vítejte v džungli / Rundown, The (2003)

[size=15pt] Vítejte v džungli / Rundown, The (2003) [/size]
Re: Vítejte v džungli / Rundown, The (2003)Re: Vítejte v džungli / Rundown, The (2003)
Re: Vítejte v džungli / Rundown, The (2003)
ČAS: 1:39:59
ROZMĚRY :592 x 256
ZVUK :MP3
JAZYK :CZ
KOMPRESE:DIVX
VELIKOST :746,3MB
Re: Vítejte v džungli / Rundown, The (2003)
Režie: Peter Berg
Hrají: Dwayne Johnson, Seann William Scott, Rosario Dawson, Christopher Walken, Jon Gries, Ernie Reyes Jr., Jamal Duff, Ewen Bremner, Arnold Schwarzenegger

[size=13pt]„Vydejte se hledat Helldorado. V hlavní roli The Rock - akční hrdina pro nové tisíciletí“[/size]

V drsné a nelítostné městské džungli jménem Los Angeles žije Beck (THE ROCK) – muž, který je ochoten použít jakékoliv prostředky k tomu, aby získal věc, pro kterou ho jeho klient poslal. Ať už jde o pozdní platbu nebo vzácný prsten, Beck nedělá rozdíly a dle svého hesla „tak ať už to máme za sebou“ se za pomocí fyzické síly snaží práci co nejdříve dokončit. Beck nikdy nevyhledává potíže a jen velmi nerad je dělá ostatním. Naneštěstí je řešení potíží právě to, kvůli čemu si jej lidé najímají a Becka čeká poslední velký problém, který musí vyřešit, aby mohl svůj dosavadní styl života konečně hodit za hlavu. A stejně jako amazonská džungle, do které je vyslán svůj poslední úkol splnit, je jeho úloha velmi spletitá.
Jádrem všech problémů je upovídaný podvodník Travis (SEANN WILLIAM SCOTT), jehož otec Becka najmul, aby přerušil synova divoká dobrodružství v Brazílii. Travis se však ukáže být ještě větším potížistou, než Beck čekal, a to nejen díky své výřečnosti a neustálým sklonům k útěku, ale také dalším dvěma komplikacím, které s sebou přináší: praktické Marianě (ROSARIO DAWSON), která zná odpovědi na některé ze skrytých tajemství džungle, a despotickému Hatcherovi (CHRISTOPHER WALKEN), který změnil džungli a její obyvatele ve své vlastní zlatonosné impérium.


Re: Vítejte v džungli / Rundown, The (2003)
Jen registrovaní uživatelé mohou vidět odkazy v code. Přihlaste se nebo zaregistrujte ZDARMA.

Re: Vítejte v džungli / Rundown, The (2003)
Jen registrovaní uživatelé mohou vidět odkazy v code. Přihlaste se nebo zaregistrujte ZDARMA.

Re: Vítejte v džungli / Rundown, The (2003)
Jen registrovaní uživatelé mohou vidět odkazy v code. Přihlaste se nebo zaregistrujte ZDARMA.

Re: Vítejte v džungli / Rundown, The (2003)
Jen registrovaní uživatelé mohou vidět odkazy v code. Přihlaste se nebo zaregistrujte ZDARMA.

Re: Vítejte v džungli / Rundown, The (2003)
Jen registrovaní uživatelé mohou vidět odkazy v code. Přihlaste se nebo zaregistrujte ZDARMA.


Upload [color=red][size=15pt]KELÍMEK[/size]
...Mé linky 100% Funkční!!!V Případe smazání,nefunkčního linku atd...tak mi napiš SZ...[size=11pt]REUPNU[/size] to znova...Díks

_________________
Seznam mých divX Filmů najdete ►►►zde◄◄◄


31 říj 2009, 14:01
Profil
Uploader
Uploader

Registrován: 25 dub 2008, 19:27
Příspěvky: 419
Příspěvek Re: Vítejte v džungli / Rundown, The (2003)

Re: Vítejte v džungli / Rundown, The (2003)
Re: Vítejte v džungli / Rundown, The (2003)<< Klikni Pro Zobrazení Původní Velikosti

Re: Vítejte v džungli / Rundown, The (2003)
V drsné a nelítostné městské džungli jménem Los Angeles žije Beck (THE ROCK) - muž, který je ochoten použít jakékoliv prostředky k tomu, aby získal věc, pro kterou ho jeho klient poslal. Ať už jde o pozdní platbu nebo vzácný prsten, Beck nedělá rozdíly a dle svého hesla tak ať už to máme za sebou se za pomocí fyzické síly snaží práci co nejdříve dokončit. Beck nikdy nevyhledává potíže a jen velmi nerad je dělá ostatním. Naneštěstí je řešení potíží právě to, kvůli čemu si jej lidé najímají a Becka čeká poslední velký problém, který musí vyřešit, aby mohl svůj dosavadní styl života konečně hodit za hlavu. A stejně jako amazonská džungle, do které je vyslán svůj poslední úkol splnit, je jeho úloha velmi spletitá.

Re: Vítejte v džungli / Rundown, The (2003)
Jen registrovaní uživatelé mohou vidět odkazy v code. Přihlaste se nebo zaregistrujte ZDARMA.


Re: Vítejte v džungli / Rundown, The (2003)
Jen registrovaní uživatelé mohou vidět odkazy v code. Přihlaste se nebo zaregistrujte ZDARMA.


Re: Vítejte v džungli / Rundown, The (2003)
Re: Vítejte v džungli / Rundown, The (2003) Vítejte v džungli
Re: Vítejte v džungli / Rundown, The (2003) Vitajte v džungli
Re: Vítejte v džungli / Rundown, The (2003) The Rundown

Akční / Dobrodružný / Komedie / Thriller
USA, 2003, 100 min

Režie: Peter Berg
Hrají: Dwayne Johnson, Seann William Scott, Rosario Dawson, Christopher Walken, Jon Gries, Ernie Reyes Jr., Jamal Duff, Ewen Bremner, Arnold Schwarzenegger, Garrett Warren

Re: Vítejte v džungli / Rundown, The (2003)
Citace:
Jméno Souboru : C:\filmy\Vítejte v džungli (2003) Cz Dabing.avi
Velikost souboru : 691 Mb.

Re: Vítejte v džungli / Rundown, The (2003)
Platnost : Ano [AVI]
Délka : 01:39:59
Kompletní film : Ano

Re: Vítejte v džungli / Rundown, The (2003)
Rozlišení : 672x272
Kodek : Intel ITU H.264
FPS : 25,00
BitRate : 854 Kbps
Faktor kvality : 0,19 b/px

Re: Vítejte v džungli / Rundown, The (2003)
Kodek : MPEG 1 or 2 Audio Layer 3 (MP3)
Počet kanálů : 2
Samplovací frekvence : 48000 Hz
BitRate : 112 Kbps


Re: Vítejte v džungli / Rundown, The (2003)
Re: Vítejte v džungli / Rundown, The (2003)<< Klikni Pro Zobrazení Původní Velikosti

Re: Vítejte v džungli / Rundown, The (2003)
Re: Vítejte v džungli / Rundown, The (2003)
Jen registrovaní uživatelé mohou vidět odkazy v code. Přihlaste se nebo zaregistrujte ZDARMA.


Re: Vítejte v džungli / Rundown, The (2003)
Jen registrovaní uživatelé mohou vidět odkazy v code. Přihlaste se nebo zaregistrujte ZDARMA.


Re: Vítejte v džungli / Rundown, The (2003)
Re: Vítejte v džungli / Rundown, The (2003)

_________________
nedělám reuploady svých uploadů


23 led 2011, 10:23
Profil
Příspěvek Re: Vítejte v džungli / Rundown, The (2003)

Vítejte v džungli / Rundown, The (2003)

Re: Vítejte v džungli / Rundown, The (2003)

Jen registrovaní uživatelé mohou vidět odkazy v code. Přihlaste se nebo zaregistrujte ZDARMA.


V drsné a nelítostné městské džungli jménem Los Angeles žije Beck (THE ROCK) - muž, který je ochoten použít jakékoliv prostředky k tomu, aby získal věc, pro kterou ho jeho klient poslal. Ať už jde o pozdní platbu nebo vzácný prsten, Beck nedělá rozdíly a dle svého hesla tak ať už to máme za sebou se za pomocí fyzické síly snaží práci co nejdříve dokončit. Beck nikdy nevyhledává potíže a jen velmi nerad je dělá ostatním. Naneštěstí je řešení potíží právě to, kvůli čemu si jej lidé najímají a Becka čeká poslední velký problém, který musí vyřešit, aby mohl svůj dosavadní styl života konečně hodit za hlavu. A stejně jako amazonská džungle, do které je vyslán svůj poslední úkol splnit, je jeho úloha velmi spletitá.

Jádrem všech problémů je upovídaný podvodník Travis (SEANN WILLIAM SCOTT), jehož otec Becka najmul, aby přerušil synova divoká dobrodružství v Brazílii. Travis se však ukáže být ještě větším potížistou, než Beck čekal, a to nejen díky své výřečnosti a neustálým sklonům k útěku, ale také dalším dvěma komplikacím, které s sebou přináší: praktické Marianě (ROSARIO DAWSON), která zná odpovědi na některé ze skrytých tajemství džungle, a despotickému Hatcherovi (CHRISTOPHER WALKEN), který změnil džungli a její obyvatele ve své vlastní zlatonosné impérium. Beck musí využít všech svých schopností, aby se dokázal vypořádat se svým přidrzlým společníkem, tajemnou dívkou, psychopatickým tyranem, nadrženými opicemi, halucinogenním ovocem, zákeřnými rebely, nebezpečným terénem, skrytými pastmi a všemi dalšími překážkami, které mu prostředí brazilské džungle staví do cesty.

Akční / Dobrodružný / Komedie / Thriller
USA, 2003, 100 min
Režie: Peter Berg
Hudba: Harry Gregson-Williams
Hrají: Dwayne Johnson, Seann William Scott, Rosario Dawson, Christopher Walken, Jon Gries, Ernie Reyes Jr., Jamal Duff, Ewen Bremner, Arnold Schwarzenegger, Garrett Warren

AVI - 01:39:59 - 1220MB - DVD Rip - Cz Dabing
Video: XVID 640x272 25.00fps [Stream 00]
Audio: Dolby AC3 48000Hz 5ch 448Kbps [Stream 01]

Jen registrovaní uživatelé mohou vidět odkazy v code. Přihlaste se nebo zaregistrujte ZDARMA.


Jen registrovaní uživatelé mohou vidět odkazy v code. Přihlaste se nebo zaregistrujte ZDARMA.


Jen registrovaní uživatelé mohou vidět odkazy v code. Přihlaste se nebo zaregistrujte ZDARMA.


Jen registrovaní uživatelé mohou vidět odkazy v code. Přihlaste se nebo zaregistrujte ZDARMA.


21 kvě 2011, 12:38
Warman
Warman
Uživatelský avatar

Registrován: 25 lis 2008, 11:02
Příspěvky: 6596
Příspěvek Re: Vítejte v džungli / Rundown, The (2003)

Vítejte v džungli
Rundown, The (2003)

Re: Vítejte v džungli / Rundown, The (2003)
AKTUÁLNĚ - 68%
Re: Vítejte v džungli / Rundown, The (2003)
Jen registrovaní uživatelé mohou vidět odkazy v code. Přihlaste se nebo zaregistrujte ZDARMA.

Citace:
Obsah:
Akční / Dobrodružný / Komedie / Thriller

USA, 2003, 100 min
Režie: Peter Berg
Hudba: Harry Gregson-Williams
Hrají: Dwayne Johnson, Seann William Scott, Rosario Dawson, Christopher Walken, Jon Gries, Ernie Reyes Jr., Jamal Duff, Ewen Bremner, Arnold Schwarzenegger, Garrett Warren


V drsné a nelítostné městské džungli jménem Los Angeles žije Beck (THE ROCK) - muž, který je ochoten použít jakékoliv prostředky k tomu, aby získal věc, pro kterou ho jeho klient poslal. Ať už jde o pozdní platbu nebo vzácný prsten, Beck nedělá rozdíly a dle svého hesla tak ať už to máme za sebou se za pomocí fyzické síly snaží práci co nejdříve dokončit. Beck nikdy nevyhledává potíže a jen velmi nerad je dělá ostatním. Naneštěstí je řešení potíží právě to, kvůli čemu si jej lidé najímají a Becka čeká poslední velký problém, který musí vyřešit, aby mohl svůj dosavadní styl života konečně hodit za hlavu. A stejně jako amazonská džungle, do které je vyslán svůj poslední úkol splnit, je jeho úloha velmi spletitá...

Re: Vítejte v džungli / Rundown, The (2003)

Re: Vítejte v džungli / Rundown, The (2003)
Citace:
General
Complete name : Z:\DVD UPLOAD\Vítejte v džungli (2003) DVDRip CZ.avi
Format : AVI
Format/Info : Audio Video Interleave
File size : 732 MiB
Duration : 1h 39mn
Overall bit rate : 1 023 Kbps

Video
ID : 0
Format : MPEG-4 Visual
Format settings, BVOP : Yes
Format settings, QPel : No
Format settings, GMC : No warppoints
Format settings, Matrix : Default (H.263)
Muxing mode : Packed bitstream
Codec ID : DX50
Codec ID/Hint : DivX 5
Duration : 1h 39mn
Bit rate : 821 Kbps
Width : 664 pixels
Height : 354 pixels
Display aspect ratio : 1.876
Frame rate : 25.000 fps
Color space : YUV
Chroma subsampling : 4:2:0
Bit depth : 8 bits
Scan type : Progressive
Bits/(Pixel*Frame) : 0.140
Stream size : 587 MiB (80%)
Writing library : DivX 6.4.0 (UTC 2006-10-03)

Audio
ID : 1
Format : MPEG Audio
Format version : Version 1
Format profile : Layer 3
Mode : Joint stereo
Mode extension : MS Stereo
Emphasis : 50/15ms
Codec ID : 55
Codec ID/Hint : MP3
Duration : 1h 39mn
Bit rate mode : Constant
Bit rate : 192 Kbps
Channel(s) : 2 channels
Sampling rate : 44.1 KHz
Video delay : 26ms
Stream size : 137 MiB (19%)
Alignment : Split accross interleaves
Interleave, duration : 40 ms (1.00 video frame)
Title : Audio Stream
Writing library : LAME3.97 (beta)


Re: Vítejte v džungli / Rundown, The (2003)
Jen registrovaní uživatelé mohou vidět odkazy v code. Přihlaste se nebo zaregistrujte ZDARMA.


Bez hesla
Přidán záznam na opravu dat 5%


17 čer 2011, 21:24
Profil
Warman
Warman
Uživatelský avatar

Registrován: 25 lis 2008, 11:02
Příspěvky: 6596
Příspěvek Re: Vítejte v džungli / Rundown, The (2003)

Re: Vítejte v džungli / Rundown, The (2003)

Re: Vítejte v džungli / Rundown, The (2003)
Jen registrovaní uživatelé mohou vidět odkazy v code. Přihlaste se nebo zaregistrujte ZDARMA.

Citace:
OBSAH:
Akční / Dobrodružný / Komedie / Thriller

USA, 2003, 100 min
Režie: Peter Berg
Hudba: Harry Gregson-Williams
Hrají: Dwayne Johnson, Seann William Scott, Rosario Dawson, Christopher Walken, Ewen Bremner, Jon Gries, Ernie Reyes Jr., Garrett Warren, Jamal Duff, Jeff Chase, Arnold Schwarzenegger, Sven-Ole Thorsen, Brandon Molale

V drsné a nelítostné městské džungli jménem Los Angeles žije Beck (THE ROCK) - muž, který je ochoten použít jakékoliv prostředky k tomu, aby získal věc, pro kterou ho jeho klient poslal. Ať už jde o pozdní platbu nebo vzácný prsten, Beck nedělá rozdíly a dle svého hesla tak ať už to máme za sebou se za pomocí fyzické síly snaží práci co nejdříve dokončit. Beck nikdy nevyhledává potíže a jen velmi nerad je dělá ostatním. Naneštěstí je řešení potíží právě to, kvůli čemu si jej lidé najímají a Becka čeká poslední velký problém, který musí vyřešit, aby mohl svůj dosavadní styl života konečně hodit za hlavu. A stejně jako amazonská džungle, do které je vyslán svůj poslední úkol splnit, je jeho úloha velmi spletitá.

Jádrem všech problémů je upovídaný podvodník Travis (SEANN WILLIAM SCOTT), jehož otec Becka najmul, aby přerušil synova divoká dobrodružství v Brazílii. Travis se však ukáže být ještě větším potížistou, než Beck čekal, a to nejen díky své výřečnosti a neustálým sklonům k útěku, ale také dalším dvěma komplikacím, které s sebou přináší: praktické Marianě (ROSARIO DAWSON), která zná odpovědi na některé ze skrytých tajemství džungle, a despotickému Hatcherovi (CHRISTOPHER WALKEN), který změnil džungli a její obyvatele ve své vlastní zlatonosné impérium. Beck musí využít všech svých schopností, aby se dokázal vypořádat se svým přidrzlým společníkem, tajemnou dívkou, psychopatickým tyranem, nadrženými opicemi, halucinogenním ovocem, zákeřnými rebely, nebezpečným terénem, skrytými pastmi a všemi dalšími překážkami, které mu prostředí brazilské džungle staví do cesty.

Re: Vítejte v džungli / Rundown, The (2003)

INFO:
General : D:\AVI\Vítejte v džungli (2003) DVDRipCZ.avi
Format : AVI at 1 023 Kbps
Length : 732 MiB for 1h 39mn 58s 560ms

Video #0 : MPEG-4 Visual at 821 Kbps
Aspect : 664 x 354 (1.876) at 25.000 fps

Audio #0 : MPEG Audio at 192 Kbps
Infos : 2 channels, 44.1 KHz

Re: Vítejte v džungli / Rundown, The (2003)
Jen registrovaní uživatelé mohou vidět odkazy v code. Přihlaste se nebo zaregistrujte ZDARMA.


18 bře 2012, 21:52
Profil
Lieutenant
Lieutenant

Registrován: 19 bře 2008, 12:55
Příspěvky: 233
Příspěvek Re: Vítejte v džungli / Rundown, The (2003)

Re: Vítejte v džungli / Rundown, The (2003)Vítejte v džungli / The Rundown (2003)

Re: Vítejte v džungli / Rundown, The (2003)

Jen registrovaní uživatelé mohou vidět odkazy v code. Přihlaste se nebo zaregistrujte ZDARMA.


Jen registrovaní uživatelé mohou vidět odkazy v code. Přihlaste se nebo zaregistrujte ZDARMA.


2x900 + 408 MB - 5% zaznam na opravu dat
Jen registrovaní uživatelé mohou vidět odkazy v code. Přihlaste se nebo zaregistrujte ZDARMA.


BEZ HESLA


19 dub 2012, 16:34
Profil
Zobrazit příspěvky za předchozí:  Seřadit podle  
Odeslat nové téma Odpovědět na téma  [ Příspěvků: 12 ] 

Všechny časy jsou v UTC + 1 hodina


Nemůžete zakládat nová témata v tomto fóru
Nemůžete odpovídat v tomto fóru
Nemůžete upravovat své příspěvky v tomto fóru
Nemůžete mazat své příspěvky v tomto fóru
Nemůžete přikládat soubory v tomto fóru









StahovaniZaSMS Pizza Modena MP3 free download