fastshare
Byl jednou jeden polda (1995)
Vypnout statistiky
KATEGORIEPOSLEDNÍ PŘÍSPĚVKYPOSLEDNÍ OZNÁMENÍSTATISTIKY UŽIVATELE
Nick: Anonymous
Příspěvků: 3361
Hodnost: Warman
Varování: 0
---
Právě je 15 lis 2018, 09:57





Všechny časy jsou v UTC + 1 hodina


Pravidla fóra







Odeslat nové téma Odpovědět na téma  [ Příspěvků: 3 ] 
 Byl jednou jeden polda (1995) 
Autor Zpráva
V.I.P.
V.I.P.
Uživatelský avatar

Registrován: 30 srp 2006, 08:57
Příspěvky: 1566
Bydliště: Warcenter
Příspěvek Byl jednou jeden polda (1995)

Byl jednou jeden polda (1995)

Byl jednou jeden polda (1995)

Byl jednou jeden polda (1995) http://www.csfd.cz/film/8587-byl-jednou-jeden-polda/

Byl jednou jeden polda (1995)
MediaInfo:
Jen registrovaní uživatelé mohou vidět odkazy v code. Přihlaste se nebo zaregistrujte ZDARMA.

DELETED

_________________


Naposledy upravil ladan dne 02 zář 2013, 13:02, celkově upraveno 1
Smazány nefunkční odkazy


20 úno 2009, 02:23
Profil
Warman
Warman
Uživatelský avatar

Registrován: 25 lis 2008, 11:02
Příspěvky: 6583
Příspěvek Re: Byl jednou jeden polda (1995)

Byl jednou jeden polda (1995)
Re: Byl jednou jeden polda (1995)

Re: Byl jednou jeden polda (1995)
Jen registrovaní uživatelé mohou vidět odkazy v code. Přihlaste se nebo zaregistrujte ZDARMA.

Citace:
Obsah:
Komedie

Česko, 1995, 83 min
Režie: Jaroslav Soukup
Hrají: Ladislav Potměšil, Rudolf Hrušínský ml., Petra Martincová, Simona Krainová, Jaroslav Sypal, Miroslav Moravec, Antonín Navrátil, Tomáš Matonoha, Rudolf Hrušínský nejml., Radim Kalvoda, Květa Fialová, Marcel Ochránek, Jana Synková, Ivan Gübel, Pavel Nový, Antonín Molčík, Miroslav Nohýnek, Oldřich Navrátil, Josef Kubíček, Oldřich Vlach, Ernesto Čekan, Sandra Pogodová, Martin Zahálka, Jiří Wohanka, Filip Rajmont, Jan Hraběta, Marcela Rojíčková, Pavel Kikinčuk, Kateřina Lojdová, Karel Gult, Zdeněk Barták, Michal Suchánek, Jaroslav Šanda, Karel Augusta, Jana Rubášová, Václav Dušek, Jiří Zapletal, Petr Burian, Klára Cibulková, Jakub Hais, František Linhart, Michal Dlouhý, Jaromír Meduna


Film, v jehož úvodu nastupují do výuky frekventanti střední policejní školy, je bláznivou komedií, která je spíš sledem ztřeštěných epizod a vtípků než uceleným příběhem. Dohromady je spojuje jednoduchá zápletka, kdy velitel policejní školy major Maisner pátrá mezi svými nováčky po údajném špiónovi FBI a dostává se po nepříliš jemném kanadském žertíku do sporu se svým podřízeným, do sporu, který končí nefalšovaným přepadením banky.

Re: Byl jednou jeden polda (1995)

Re: Byl jednou jeden polda (1995)
Citace:
General
Complete name : Z:\DVD UPLOAD\Byl jednou jeden polda (1995).avi
Format : AVI
Format/Info : Audio Video Interleave
File size : 698 MiB
Duration : 1h 22mn
Overall bit rate : 1 177 Kbps
Writing application : VirtualDubMod 1.5.10.2 (build 2540/release)
Writing library : VirtualDubMod build 2540/release

Video
ID : 0
Format : MPEG-4 Visual
Format profile : Advanced [email protected]
Format settings, BVOP : Yes
Format settings, QPel : No
Format settings, GMC : No warppoints
Format settings, Matrix : Default (H.263)
Muxing mode : Packed bitstream
Codec ID : XVID
Codec ID/Hint : XviD
Duration : 1h 22mn
Bit rate : 1 040 Kbps
Width : 640 pixels
Height : 480 pixels
Display aspect ratio : 4:3
Frame rate : 25.000 fps
Color space : YUV
Chroma subsampling : 4:2:0
Bit depth : 8 bits
Scan type : Progressive
Bits/(Pixel*Frame) : 0.135
Stream size : 616 MiB (88%)
Writing library : XviD 1.1.2 (UTC 2006-11-01)

Audio
ID : 1
Format : MPEG Audio
Format version : Version 1
Format profile : Layer 3
Mode : Joint stereo
Mode extension : MS Stereo
Codec ID : 55
Codec ID/Hint : MP3
Duration : 1h 22mn
Bit rate mode : Constant
Bit rate : 128 Kbps
Channel(s) : 2 channels
Sampling rate : 48.0 KHz
Stream size : 75.7 MiB (11%)
Alignment : Aligned on interleaves
Interleave, duration : 40 ms (1.00 video frame)
Interleave, preload duration : 504 ms


Re: Byl jednou jeden polda (1995)
Jen registrovaní uživatelé mohou vidět odkazy v code. Přihlaste se nebo zaregistrujte ZDARMA.


Bez hesla
Přidán záznam na opravu dat 5%


23 dub 2011, 21:51
Profil
Colonel
Colonel

Registrován: 30 pro 2007, 17:16
Příspěvky: 361
Příspěvek Re: Byl jednou jeden polda (1995)

Byl jednou jeden polda (1995)
Video/Zdroj: DVDRip

Re: Byl jednou jeden polda (1995)

Jen registrovaní uživatelé mohou vidět odkazy v code. Přihlaste se nebo zaregistrujte ZDARMA.


Citace:
Format : AVI
File size : 698 MiB
Duration : 1h 22mn
Overall bit rate : 1 177 Kbps

Video
Format : MPEG-4 Visual
Codec ID : XVID
Duration : 1h 22mn
Bit rate : 1 040 Kbps
Width : 720 pixels
Height : 406 pixels
Display aspect ratio : 16:9
Frame rate : 25.000 fps
Color space : YUV
Chroma subsampling : 4:2:0
Bit depth : 8 bits
Scan type : Progressive
Compression mode : Lossy
Bits/(Pixel*Frame) : 0.142
Stream size : 616 MiB (88%)

Audio
Format : MPEG Audio
Codec ID/Hint : MP3
Duration : 1h 22mn
Bit rate mode : Constant
Bit rate : 128 Kbps
Channel(s) : 2 channels
Sampling rate : 48.0 KHz
Compression mode : Lossy
Stream size : 75.7 MiB (11%)
Alignment : Aligned on interleaves
Interleave, duration : 40 ms (1.00 video frame)
Interleave, preload duration : 504 ms


Fastshare
Jen registrovaní uživatelé mohou vidět odkazy v code. Přihlaste se nebo zaregistrujte ZDARMA.


04 črc 2018, 08:57
Profil
Zobrazit příspěvky za předchozí:  Seřadit podle  
Odeslat nové téma Odpovědět na téma  [ Příspěvků: 3 ] 

Všechny časy jsou v UTC + 1 hodina


Nemůžete zakládat nová témata v tomto fóru
Nemůžete odpovídat v tomto fóru
Nemůžete upravovat své příspěvky v tomto fóru
Nemůžete mazat své příspěvky v tomto fóru
Nemůžete přikládat soubory v tomto fóru









StahovaniZaSMS Pizza Modena MP3 free download