fastshare
Resident Evil: Afterlife (2010)
Vypnout statistiky
KATEGORIEPOSLEDNÍ PŘÍSPĚVKYPOSLEDNÍ OZNÁMENÍSTATISTIKY UŽIVATELE
Nick: Anonymous
Příspěvků: 3381
Hodnost: Warman
Varování: 0
---
Právě je 19 úno 2018, 10:55





Všechny časy jsou v UTC + 1 hodina


Pravidla fóra







Odeslat nové téma Odpovědět na téma  [ Příspěvků: 10 ] 
 Resident Evil: Afterlife (2010) 
Autor Zpráva
Colonel 4 th class
Colonel 4 th class
Uživatelský avatar

Registrován: 29 srp 2010, 15:09
Příspěvky: 524
Příspěvek Resident Evil: Afterlife (2010)

Resident Evil: Afterlife (2010)
Resident Evil: Afterlife (2010)

Resident Evil: Afterlife (2010)
Resident Evil: Afterlife (2010)

Resident Evil: Afterlife (2010)

Jen registrovaní uživatelé mohou vidět odkazy v code. Přihlaste se nebo zaregistrujte ZDARMA.


Resident Evil: Afterlife (2010)

Resident Evil: Afterlife (2010)

Resident Evil: Afterlife (2010)
Jen registrovaní uživatelé mohou vidět odkazy v code. Přihlaste se nebo zaregistrujte ZDARMA.




================================================================

Resident Evil: Afterlife (2010)

Jen registrovaní uživatelé mohou vidět odkazy v code. Přihlaste se nebo zaregistrujte ZDARMA.


Resident Evil: Afterlife (2010)

Resident Evil: Afterlife (2010)

Resident Evil: Afterlife (2010)

Resident Evil: Afterlife (2010)
Jen registrovaní uživatelé mohou vidět odkazy v code. Přihlaste se nebo zaregistrujte ZDARMA.



================================================================

Resident Evil: Afterlife (2010)

Jen registrovaní uživatelé mohou vidět odkazy v code. Přihlaste se nebo zaregistrujte ZDARMA.


SCREENy:
http://www.upnito.sk/0/bnb5s74mrgs9tez9x6zr7gfbbafjafkp.png
http://www.upnito.sk/0/452z23tw5v8hc5y4k5u75bmsk48pgyfa.png

Resident Evil: Afterlife (2010)

Resident Evil: Afterlife (2010)
Jen registrovaní uživatelé mohou vidět odkazy v code. Přihlaste se nebo zaregistrujte ZDARMA.


Naposledy upravil ladan dne 04 kvě 2012, 03:38, celkově upraveno 3
Smazány nefunkční odkazy a obrázky


26 pro 2010, 11:29
Profil
Corporal
Corporal

Registrován: 27 zář 2010, 16:25
Příspěvky: 66
Příspěvek Re: Resident Evil: Afterlife (2010)

nazov:
Resident Evil: Afterlife (2010)
Resident.Evil.Afterlife.2010.DVDRip.CZ-MY

obal:
Re: Resident Evil: Afterlife (2010)

info:
Jen registrovaní uživatelé mohou vidět odkazy v code. Přihlaste se nebo zaregistrujte ZDARMA.


csfd:
Jen registrovaní uživatelé mohou vidět odkazy v code. Přihlaste se nebo zaregistrujte ZDARMA.


Stahuj:
hellshare.com:
Jen registrovaní uživatelé mohou vidět odkazy v code. Přihlaste se nebo zaregistrujte ZDARMA.

share-rapid.com:
Jen registrovaní uživatelé mohou vidět odkazy v code. Přihlaste se nebo zaregistrujte ZDARMA.

Bez Hesla


Naposledy upravil ladan dne 13 pro 2012, 14:28, celkově upraveno 1
Smazány nefunkční odkazy


15 kvě 2011, 05:38
Profil
Colonel 4 th class
Colonel 4 th class
Uživatelský avatar

Registrován: 27 kvě 2009, 18:15
Příspěvky: 570
Příspěvek Re: Resident Evil: Afterlife (2010)

Resident Evil Afterlife (2010) BRRip.XviD.CZ-BkR / BRRip CZ

Re: Resident Evil: Afterlife (2010)
Re: Resident Evil: Afterlife (2010)


###iNFO###

Jen registrovaní uživatelé mohou vidět odkazy v code. Přihlaste se nebo zaregistrujte ZDARMA.


###iNFO TECH.###

Jen registrovaní uživatelé mohou vidět odkazy v code. Přihlaste se nebo zaregistrujte ZDARMA.



Re: Resident Evil: Afterlife (2010)

Jen registrovaní uživatelé mohou vidět odkazy v code. Přihlaste se nebo zaregistrujte ZDARMA.



Re: Resident Evil: Afterlife (2010)

Jen registrovaní uživatelé mohou vidět odkazy v code. Přihlaste se nebo zaregistrujte ZDARMA.


18 led 2012, 14:13
Profil
Sergeant
Sergeant

Registrován: 01 srp 2009, 19:41
Příspěvky: 84
Příspěvek Re: Resident Evil: Afterlife (2010)

Name: Resident Evil: Afterlife / Resident Evil: Afterlife (2010) 3D ANAGLYPH
Release: Resident Evil: Afterlife / Resident Evil: Afterlife (2010) 3D ANAGLYPH - DVDRip.XviD CZ

Brýle - red-cyan
Zdroj 3D BLURAY

Čsfd:
Jen registrovaní uživatelé mohou vidět odkazy v code. Přihlaste se nebo zaregistrujte ZDARMA.

Info:
Akční / Sci-Fi / Thriller / Horor
Velká Británie / Německo / Kanada, 2010, 93 min
Jen registrovaní uživatelé mohou vidět odkazy v code. Přihlaste se nebo zaregistrujte ZDARMA.

Share-Rapid:
Jen registrovaní uživatelé mohou vidět odkazy v code. Přihlaste se nebo zaregistrujte ZDARMA.

Bez hesla
Povolen reup


10 pro 2012, 17:21
Profil
Captain
Captain

Registrován: 30 pro 2007, 17:16
Příspěvky: 289
Příspěvek Re: Resident Evil: Afterlife (2010)

Resident Evil: Afterlife (2010)
BRRip CZ 5.1

Re: Resident Evil: Afterlife (2010)

Jen registrovaní uživatelé mohou vidět odkazy v code. Přihlaste se nebo zaregistrujte ZDARMA.


Citace:
Format : AVI
Format/Info : Audio Video Interleave
File size : 1.46 GiB
Duration : 1h 36mn
Overall bit rate : 2 150 Kbps
Writing application : VirtualDubMod 1.5.10.2 (build 2540/release)
Writing library : VirtualDubMod build 2540/release

Video
ID : 0
Format : MPEG-4 Visual
Format profile : Advanced [email protected]
Format settings, BVOP : 2
Format settings, QPel : No
Format settings, GMC : No warppoints
Format settings, Matrix : Default (MPEG)
Codec ID : XVID
Codec ID/Hint : XviD
Duration : 1h 36mn
Bit rate : 1 693 Kbps
Width : 720 pixels
Height : 304 pixels
Display aspect ratio : 2.35:1
Frame rate : 23.976 fps
Color space : YUV
Chroma subsampling : 4:2:0
Bit depth : 8 bits
Scan type : Progressive
Compression mode : Lossy
Bits/(Pixel*Frame) : 0.323
Stream size : 1.15 GiB (79%)
Writing library : XviD 1.2.1 (UTC 2008-12-04)

Audio
ID : 1
Format : AC-3
Format/Info : Audio Coding 3
Mode extension : CM (complete main)
Format settings, Endianness : Big
Codec ID : 2000
Duration : 1h 36mn
Bit rate mode : Constant
Bit rate : 448 Kbps
Channel(s) : 6 channels
Channel positions : Front: L C R, Side: L R, LFE
Sampling rate : 48.0 KHz
Bit depth : 16 bits
Compression mode : Lossy
Stream size : 310 MiB (21%)
Alignment : Split accross interleaves
Interleave, duration : 42 ms (1.00 video frame)
Interleave, preload duration : 500 ms


Fastshare
Jen registrovaní uživatelé mohou vidět odkazy v code. Přihlaste se nebo zaregistrujte ZDARMA.


14 led 2013, 20:33
Profil
Warman
Warman

Registrován: 16 črc 2011, 10:59
Příspěvky: 1172
Příspěvek Re: Resident Evil: Afterlife (2010)

Resident Evil: Afterlife (2010)

Resident.Evil.Afterlife.2010.BDRip.XviD.AC3.CZ-Starcross

Re: Resident Evil: Afterlife (2010)

Jen registrovaní uživatelé mohou vidět odkazy v code. Přihlaste se nebo zaregistrujte ZDARMA.

Jazyk: 5.1 Cz
Titulky: Ne
Kdy a kde: Velká Británie / Německo / Kanada, 2010
Délka: 96 min.
Žánr: Akční / Sci-Fi / Thriller / Horor

720:304; 2,35:1
XviD, Celkový BitRate: 2 219 Kbps
AC3, 6 kanály/448 Kbps
23.976 fps, 48 Khz
1,50 GB


Re: Resident Evil: Afterlife (2010)

Ve světě, který je zamořen virovou infekcí, která mění své oběti na Nemrtvé, pokračuje ALICE (Milla Jovovich) na své cestě, aby našla ty, kteří přežili a dovedla je do bezpečí. Její smrtelná bitva s Umbrella Corporation dosahuje nových vrcholů, ale Alice získá nečekanou pomoc od starého přítele.
Nové vodítko, které slibuje bezpečné nebe od Nemrtvých je zavede do Los Angeles, ale když přijíždějí, město je zamořeno tisíci Nemrtvých – a Alice a její společníci se dostanou do smrtící pasti.


euroshare:
Jen registrovaní uživatelé mohou vidět odkazy v code. Přihlaste se nebo zaregistrujte ZDARMA.

share-rapid:
Jen registrovaní uživatelé mohou vidět odkazy v code. Přihlaste se nebo zaregistrujte ZDARMA.

fastshare:
Jen registrovaní uživatelé mohou vidět odkazy v code. Přihlaste se nebo zaregistrujte ZDARMA.

V případě potřeby udělám re-upload


03 črc 2013, 23:26
Profil
Master Sergant
Master Sergant

Registrován: 05 čer 2008, 08:05
Příspěvky: 125
Příspěvek Resident evil 4 / Resident Evil: Afterlife (2010)

Resident evil: Afterlife / Resident Evil: Afterlife (2010)
Resident evil 4 / Resident Evil: Afterlife  (2010)
Akční / Sci-Fi / Thriller / Horor

Velká Británie / Německo / Kanada, 2010, 93 min
Režie:
Paul W.S. Anderson
Scénář:
Paul W.S. Anderson
Kamera:
Glen MacPherson
Hudba:
tomandandy
Hrají:
Milla Jovovich, Boris Kodjoe, Ali Larter, Wentworth Miller, Sienna Guillory, Spencer Locke, Shawn Roberts, Kacey Barnfield, Norman Yeung, Kim Coates, Sergio Peris-Mencheta, Mika Nakashima

Ve světě, který je zamořen virovou infekcí, která mění své oběti na Nemrtvé, pokračuje ALICE (Milla Jovovich) na své cestě, aby našla ty, kteří přežili a dovedla je do bezpečí. Její smrtelná bitva s Umbrella Corporation dosahuje nových vrcholů, ale Alice získá nečekanou pomoc od starého přítele. Nové vodítko, které slibuje bezpečné nebe od Nemrtvých je zavede do Los Angeles, ale když přijíždějí, město je zamořeno tisíci Nemrtvých – a Alice a její společníci se dostanou do smrtící pasti.

Jen registrovaní uživatelé mohou vidět odkazy v code. Přihlaste se nebo zaregistrujte ZDARMA.

__.__
Všeobecné
Délka 96:53
Celkový bitrate 1005kbps
Typ média riff
Obraz
Rozlišení 720x308
Bitrate 557kbps(vbr)
Kodek DivX v5
Zvuk
Bitrate 448kbps (cbr)
Kanály 5.1 (surround)
Kodek Dolby AC3
Vzorkovací frekvence 48000

Jazyk: CZ
)..(
701mb
Resident evil 4 / Resident Evil: Afterlife  (2010)
Jen registrovaní uživatelé mohou vidět odkazy v code. Přihlaste se nebo zaregistrujte ZDARMA.


Resident evil 4 / Resident Evil: Afterlife  (2010)
Jen registrovaní uživatelé mohou vidět odkazy v code. Přihlaste se nebo zaregistrujte ZDARMA.


Resident evil 4 / Resident Evil: Afterlife  (2010)
Jen registrovaní uživatelé mohou vidět odkazy v code. Přihlaste se nebo zaregistrujte ZDARMA.


Resident evil 4 / Resident Evil: Afterlife  (2010)
Jen registrovaní uživatelé mohou vidět odkazy v code. Přihlaste se nebo zaregistrujte ZDARMA.


Datoid
Jen registrovaní uživatelé mohou vidět odkazy v code. Přihlaste se nebo zaregistrujte ZDARMA.


Resident evil 4 / Resident Evil: Afterlife  (2010)
Jen registrovaní uživatelé mohou vidět odkazy v code. Přihlaste se nebo zaregistrujte ZDARMA.

_________________
Čo kapacitne stíham, to aj dávam.
Čo budem časom zmazané, nebudem opravovať.
Z kapacitných dôvodom nezvládam kompletné reupy.


09 říj 2013, 17:02
Profil
Colonel 5 th class
Colonel 5 th class
Uživatelský avatar

Registrován: 19 srp 2011, 00:35
Příspěvky: 631
Příspěvek Re: Resident Evil: Afterlife (2010)

Resident Evil: Afterlife / Resident Evil: Afterlife CZ, ENG + CZ, ENG Tit. + CZ Forced Tit. (2010) 1080p BluRay
Resident.Evil.Afterlife.Resident.Evil.Afterlife.CZ.ENG.2010.1080p.BrRip.x264.YIFY.(CZmicroHD)
Re: Resident Evil: Afterlife (2010)
Re: Resident Evil: Afterlife (2010)
Jen registrovaní uživatelé mohou vidět odkazy v code. Přihlaste se nebo zaregistrujte ZDARMA.
Akční / Thriller / Horor / Sci-Fi

Německo / Francie / USA / Kanada, 2010, 93 min
Režie:
Paul W.S. Anderson
Scénář:
Paul W.S. Anderson
Kamera:
Glen MacPherson
Hudba:
tomandandy
Hrají:
Milla Jovovich, Boris Kodjoe, Ali Larter, Wentworth Miller, Sienna Guillory, Spencer Locke, Shawn Roberts, Kacey Barnfield, Norman Yeung, Kim Coates, Sergio Peris-Mencheta, Mika Nakašima
MediaInfo
Citace:
Format : Matroska
File size : 1.60 GiB
Duration : 1h 36mn
Overall bit rate : 2 369 Kbps
Movie name : Resident Evil: Afterlife (2010)
Encoded date : UTC 2014-05-27 05:52:20
Writing application : mkvmerge v6.7.0 ('Back to the Ground') 32bit built on Jan 8 2014 15:03:17
Writing library : libebml v1.3.0 + libmatroska v1.4.1

Video
ID : 1
Format : AVC
Format/Info : Advanced Video Codec
Format profile : [email protected]
Format settings, CABAC : Yes
Format settings, ReFrames : 4 frames
Codec ID : V_MPEG4/ISO/AVC
Duration : 1h 36mn
Nominal bit rate : 1 825 Kbps
Width : 1 920 pixels
Height : 800 pixels
Display aspect ratio : 2.40:1
Frame rate : 23.976 fps
Color space : YUV
Chroma subsampling : 4:2:0
Bit depth : 8 bits
Scan type : Progressive
Bits/(Pixel*Frame) : 0.050
Writing library : x264 core 125 r2200 999b753
Encoding settings : cabac=1 / ref=5 / deblock=1:0:0 / analyse=0x3:0x133 / me=umh / subme=9 / psy=1 / psy_rd=1.00:0.00 / mixed_ref=1 / me_range=16 / chroma_me=1 / trellis=2 / 8x8dct=1 / cqm=0 / deadzone=21,11 / fast_pskip=1 / chroma_qp_offset=-2 / threads=12 / lookahead_threads=2 / sliced_threads=0 / nr=0 / decimate=1 / interlaced=0 / bluray_compat=0 / constrained_intra=0 / bframes=8 / b_pyramid=1 / b_adapt=2 / b_bias=2 / direct=3 / weightb=1 / open_gop=0 / weightp=2 / keyint=240 / keyint_min=23 / scenecut=40 / intra_refresh=0 / rc_lookahead=60 / rc=2pass / mbtree=1 / bitrate=1825 / ratetol=1.0 / qcomp=0.60 / qpmin=10 / qpmax=51 / qpstep=4 / cplxblur=20.0 / qblur=0.5 / ip_ratio=1.40 / aq=1:1.00
Language : English

Audio #1
ID : 2
Format : AAC
Format/Info : Advanced Audio Codec
Format profile : LC
Codec ID : A_AAC
Duration : 1h 36mn
Channel(s) : 2 channels
Channel positions : Front: L R
Sampling rate : 48.0 KHz
Compression mode : Lossy
Language : English

Audio #2
ID : 4
Format : AC-3
Format/Info : Audio Coding 3
Mode extension : CM (complete main)
Codec ID : A_AC3
Duration : 1h 36mn
Bit rate mode : Constant
Bit rate : 448 Kbps
Channel(s) : 6 channels
Channel positions : Front: L C R, Side: L R, LFE
Sampling rate : 48.0 KHz
Bit depth : 16 bits
Compression mode : Lossy
Stream size : 310 MiB (19%)
Title : 5.1
Language : Czech

Text #1
ID : 3
Format : UTF-8
Codec ID : S_TEXT/UTF8
Codec ID/Info : UTF-8 Plain Text
Language : English

Text #2
ID : 5
Format : ASS
Codec ID : S_TEXT/ASS
Codec ID/Info : Advanced Sub Station Alpha
Compression mode : Lossless
Title : Forced
Language : Czech

Text #3
ID : 6
Format : UTF-8
Codec ID : S_TEXT/UTF8
Codec ID/Info : UTF-8 Plain Text
Language : Czech
Download FastShare
Jen registrovaní uživatelé mohou vidět odkazy v code. Přihlaste se nebo zaregistrujte ZDARMA.
Download Ulož.to
Jen registrovaní uživatelé mohou vidět odkazy v code. Přihlaste se nebo zaregistrujte ZDARMA.
Info
Citace:
Prosím bez reuploadu na FastShare a Ulož.to. Děkuji.


28 kvě 2014, 23:27
Profil
Colonel 2 nd class
Colonel 2 nd class

Registrován: 04 bře 2011, 15:02
Příspěvky: 421
Příspěvek Re: Resident Evil: Afterlife (2010)

Resident Evil: Afterlife (2010) BDRip CZ

Re: Resident Evil: Afterlife (2010)
Re: Resident Evil: Afterlife (2010)

Re: Resident Evil: Afterlife (2010)
Ve světě, který je zamořen virovou infekcí, která mění své oběti na Nemrtvé, pokračuje ALICE (Milla Jovovich) na své cestě, aby našla ty, kteří přežili a dovedla je do bezpečí. Její smrtelná bitva s Umbrella Corporation dosahuje nových vrcholů, ale Alice získá nečekanou pomoc od starého přítele. Nové vodítko, které slibuje bezpečné nebe od Nemrtvých je zavede do Los Angeles, ale když přijíždějí, město je zamořeno tisíci Nemrtvých – a Alice a její společníci se dostanou do smrtící pasti.

Re: Resident Evil: Afterlife (2010)
Jen registrovaní uživatelé mohou vidět odkazy v code. Přihlaste se nebo zaregistrujte ZDARMA.


Re: Resident Evil: Afterlife (2010)
Akční / Thriller / Horor / Sci-Fi
Německo / Francie / USA / Kanada, 2010, 93 min

Režie: Paul W.S. Anderson
Scénář: Paul W.S. Anderson
Kamera: Glen MacPherson
Hudba: tomandandy
Hrají: Milla Jovovich, Boris Kodjoe, Ali Larter, Wentworth Miller, Sienna Guillory, Spencer Locke, Shawn Roberts, Kacey Barnfield, Norman Yeung, Kim Coates, Sergio Peris-Mencheta, Mika Nakašima
Produkce: Robert Kulzer

Re: Resident Evil: Afterlife (2010)
Jen registrovaní uživatelé mohou vidět odkazy v code. Přihlaste se nebo zaregistrujte ZDARMA.


Re: Resident Evil: Afterlife (2010)
Fastshare
Jen registrovaní uživatelé mohou vidět odkazy v code. Přihlaste se nebo zaregistrujte ZDARMA.


Archívy jsou testované a byl Přidán Záznam Pro Opravu Dat 5%...


21 pro 2015, 12:58
Profil
Zobrazit příspěvky za předchozí:  Seřadit podle  
Odeslat nové téma Odpovědět na téma  [ Příspěvků: 10 ] 

Všechny časy jsou v UTC + 1 hodina


Nemůžete zakládat nová témata v tomto fóru
Nemůžete odpovídat v tomto fóru
Nemůžete upravovat své příspěvky v tomto fóru
Nemůžete mazat své příspěvky v tomto fóru
Nemůžete přikládat soubory v tomto fóru









StahovaniZaSMS Pizza Modena MP3 free download