fastshare
Jay and Silent Bob Reboot (2019)(EN)
Vypnout statistiky
KATEGORIEPOSLEDNÍ PŘÍSPĚVKYPOSLEDNÍ OZNÁMENÍSTATISTIKY UŽIVATELE
Nick: Anonymous
Příspěvků: 2306
Hodnost: Warman
Varování: 0
---
Právě je 27 říj 2020, 21:52





Všechny časy jsou v UTC + 1 hodina




Odeslat nové téma Odpovědět na téma  [ Příspěvek: 1 ] 
 Jay and Silent Bob Reboot (2019)(EN) 
Autor Zpráva
Colonel 2 nd class
Colonel 2 nd class

Registrován: 25 črc 2008, 13:59
Příspěvky: 433
Příspěvek Jay and Silent Bob Reboot (2019)(EN)

Jay and Silent Bob Reboot (2019)(EN)[1080pLQ]
Jay and Silent Bob Reboot (2019)(EN)

Poté, co dvojice hlavních hrdinů Jay a mlčenlivý Bob příjdou o autorská práva na reboot filmu Bluntman and Chronic se vydávají napříč amerikou se snahou udělat vše proto, aby se žádný reboot nenatočil. Prostě razí heslo, když né my, tak nikdo. Jde o reboot amerického filmu Jay a mlčenlivý Bob vrací úder z roku 2001.

CSFD:
Jen registrovaní uživatelé mohou vidět odkazy v code. Přihlaste se nebo zaregistrujte ZDARMA.


MEDIAINFO:
General
Unique ID : 30840826458732566073327429619859043634 (0x1733BA2472B006FCE673F72801E7B532)
Complete name : /mnt/sdc1/Torrent/Jay.and.Silent.Bob.Reboot.2019.1080p.BluRay.x264-AAA/Jay.and.Silent.Bob.Reboot.2019.1080p.BluRay.x264-AAA.mkv
Format : Matroska
Format version : Version 4
File size : 7.65 GiB
Duration : 1 h 45 min
Overall bit rate : 10.4 Mb/s
Encoded date : UTC 2020-01-08 18:39:22
Writing application : mkvmerge v40.0.0 ('Old Town Road + Pony') 64-bit
Writing library : libebml v1.3.9 + libmatroska v1.5.2

Video
ID : 1
Format : AVC
Format/Info : Advanced Video Codec
Format profile : [email protected]
Format settings : CABAC / 5 Ref Frames
Format settings, CABAC : Yes
Format settings, Reference frames : 5 frames
Codec ID : V_MPEG4/ISO/AVC
Duration : 1 h 45 min
Bit rate : 8 884 kb/s
Width : 1 920 pixels
Height : 808 pixels
Display aspect ratio : 2.40:1
Frame rate mode : Constant
Frame rate : 23.976 (24000/1001) FPS
Color space : YUV
Chroma subsampling : 4:2:0
Bit depth : 8 bits
Scan type : Progressive
Bits/(Pixel*Frame) : 0.239
Stream size : 6.53 GiB (85%)
Title : Jay.and.Silent.Bob.Reboot.2019.1080p.BluRay.x264-AAA
Writing library : x264 core 157 r2969 d4099dd
Encoding settings : cabac=1 / ref=5 / deblock=1:0:0 / analyse=0x3:0x113 / me=umh / subme=8 / psy=1 / psy_rd=1.00:0.00 / mixed_ref=1 / me_range=16 / chroma_me=1 / trellis=1 / 8x8dct=1 / cqm=0 / deadzone=21,11 / fast_pskip=1 / chroma_qp_offset=-2 / threads=16 / lookahead_threads=2 / sliced_threads=0 / nr=0 / decimate=1 / interlaced=0 / bluray_compat=0 / constrained_intra=0 / bframes=3 / b_pyramid=2 / b_adapt=2 / b_bias=0 / direct=3 / weightb=1 / open_gop=0 / weightp=2 / keyint=240 / keyint_min=23 / scenecut=40 / intra_refresh=0 / rc_lookahead=50 / rc=2pass / mbtree=1 / bitrate=8884 / ratetol=1.0 / qcomp=0.60 / qpmin=0 / qpmax=69 / qpstep=4 / cplxblur=20.0 / qblur=0.5 / ip_ratio=1.40 / aq=1:1.00
Default : Yes
Forced : No

Audio
ID : 2
Format : DTS
Format/Info : Digital Theater Systems
Codec ID : A_DTS
Duration : 1 h 45 min
Bit rate mode : Constant
Bit rate : 1 509 kb/s
Channel(s) : 6 channels
Channel layout : C L R Ls Rs LFE
Sampling rate : 48.0 kHz
Frame rate : 93.750 FPS (512 SPF)
Bit depth : 24 bits
Compression mode : Lossy
Stream size : 1.11 GiB (15%)
Title : English Digital Theater Systems (DTS)
Language : English
Default : Yes
Forced : No

Menu
00:00:00.000 : :Chapter 01
00:03:38.677 : :Chapter 02
00:09:30.653 : :Chapter 03
00:16:32.658 : :Chapter 04
00:24:10.324 : :Chapter 05
00:30:43.633 : :Chapter 06
00:40:34.015 : :Chapter 07
00:44:53.941 : :Chapter 08
00:48:46.715 : :Chapter 09
00:54:34.021 : :Chapter 10
00:59:26.730 : :Chapter 11
01:07:03.227 : :Chapter 12
01:10:01.906 : :Chapter 13
01:16:08.480 : :Chapter 14
01:25:37.215 : :Chapter 15
01:32:39.345 : :Chapter 16


DOWNLOAD:
Jen registrovaní uživatelé mohou vidět odkazy v code. Přihlaste se nebo zaregistrujte ZDARMA.


TITULKY:
Jen registrovaní uživatelé mohou vidět odkazy v code. Přihlaste se nebo zaregistrujte ZDARMA.


16 úno 2020, 04:27
Profil
Zobrazit příspěvky za předchozí:  Seřadit podle  
Odeslat nové téma Odpovědět na téma  [ Příspěvek: 1 ] 

Všechny časy jsou v UTC + 1 hodina


Nemůžete zakládat nová témata v tomto fóru
Nemůžete odpovídat v tomto fóru
Nemůžete upravovat své příspěvky v tomto fóru
Nemůžete mazat své příspěvky v tomto fóru
Nemůžete přikládat soubory v tomto fóru









StahovaniZaSMS Pizza Modena MP3 free download