fastshare
Doba ledová 4 / Ice Age: Continental Drift (2012) 3D
Vypnout statistiky
KATEGORIEPOSLEDNÍ PŘÍSPĚVKYPOSLEDNÍ OZNÁMENÍSTATISTIKY UŽIVATELE
Nick: Anonymous
Příspěvků: 3361
Hodnost: Warman
Varování: 0
---
Právě je 24 zář 2018, 08:40





Všechny časy jsou v UTC + 1 hodina


Pravidla fóra







Odeslat nové téma Odpovědět na téma  [ Příspěvků: 7 ] 
 Doba ledová 4 / Ice Age: Continental Drift (2012) 3D 
Autor Zpráva
Colonel 3 rd class
Colonel 3 rd class

Registrován: 05 led 2010, 08:30
Příspěvky: 471
Příspěvek Doba ledová 4 / Ice Age: Continental Drift (2012) 3D

Ice.Age.Continental.Drift.2012.1080p.BluRay.3D.H-SBS.CZE

Doba ledová 4 / Ice Age: Continental Drift (2012) 3D
CSFD
Jen registrovaní uživatelé mohou vidět odkazy v code. Přihlaste se nebo zaregistrujte ZDARMA.


SAMPLE
Jen registrovaní uživatelé mohou vidět odkazy v code. Přihlaste se nebo zaregistrujte ZDARMA.


__.__
Citace:
Format : Matroska
Format version : Version 2
File size : 9.47 GiB
Duration : 1h 27mn
Overall bit rate : 15.4 Mbps

Video
ID : 1
Format : AVC
Format/Info : Advanced Video Codec
Format profile : [email protected]
Format settings, CABAC : Yes
Format settings, ReFrames : 2 frames
Muxing mode : Header stripping
Codec ID : V_MPEG4/ISO/AVC
Duration : 1h 27mn
Bit rate : 13.2 Mbps
Width : 1 920 pixels
Height : 1 080 pixels
Display aspect ratio : 16:9
Frame rate mode : Constant
Frame rate : 23.976 fps
Color space : YUV
Chroma subsampling : 4:2:0
Bit depth : 8 bits
Scan type : Progressive
Bits/(Pixel*Frame) : 0.265
Stream size : 8.08 GiB (85%)
Writing library : x264 core
Language : English
Default : Yes
Forced : No
Color primaries : BT.709
Transfer characteristics : BT.709
Matrix coefficients : BT.709

Audio #1
ID : 2
Format : DTS
Format/Info : Digital Theater Systems
Muxing mode : Header stripping
Codec ID : A_DTS
Duration : 1h 27mn
Bit rate mode : Constant
Bit rate : 1 510 Kbps
Channel(s) : 6 channels
Channel positions : Front: L C R, Side: L R, LFE
Sampling rate : 48.0 KHz
Bit depth : 24 bits
Compression mode : Lossy
Stream size : 948 MiB (10%)
Language : English
Default : No
Forced : No

Audio #2
ID : 3
Format : AC-3
Format/Info : Audio Coding 3
Mode extension : CM (complete main)
Format settings, Endianness : Big
Muxing mode : Header stripping
Codec ID : A_AC3
Duration : 1h 27mn
Bit rate mode : Constant
Bit rate : 448 Kbps
Channel(s) : 6 channels
Channel positions : Front: L C R, Side: L R, LFE
Sampling rate : 48.0 KHz
Bit depth : 16 bits
Compression mode : Lossy
Stream size : 281 MiB (3%)
Language : Czech
Default : Yes
Forced : No


Doba ledová 4 / Ice Age: Continental Drift (2012) 3D
Jen registrovaní uživatelé mohou vidět odkazy v code. Přihlaste se nebo zaregistrujte ZDARMA.


Doba ledová 4 / Ice Age: Continental Drift (2012) 3D
Jen registrovaní uživatelé mohou vidět odkazy v code. Přihlaste se nebo zaregistrujte ZDARMA.



Doba ledová 4 / Ice Age: Continental Drift (2012) 3D
Jen registrovaní uživatelé mohou vidět odkazy v code. Přihlaste se nebo zaregistrujte ZDARMA.


Přidán záznam na opravu dat 5%


25 říj 2012, 05:30
Profil
Sergeant
Sergeant
Uživatelský avatar

Registrován: 14 črc 2010, 12:40
Příspěvky: 96
Příspěvek Re: Doba ledová 4 / Ice Age: Continental Drift (2012) 3D

Doba ledová 4: Země v pohybu / Ice Age 4 (2012)
Ice.Age.Continental.Drift.2012.1080p.BluRay.3D.H-SBS.DTS.x264-PublicHD.CZ


Re: Doba ledová 4 / Ice Age: Continental Drift (2012) 3D

Jen registrovaní uživatelé mohou vidět odkazy v code. Přihlaste se nebo zaregistrujte ZDARMA.


Jen registrovaní uživatelé mohou vidět odkazy v code. Přihlaste se nebo zaregistrujte ZDARMA.


Jen registrovaní uživatelé mohou vidět odkazy v code. Přihlaste se nebo zaregistrujte ZDARMA.


sample:
Jen registrovaní uživatelé mohou vidět odkazy v code. Přihlaste se nebo zaregistrujte ZDARMA.


Jen registrovaní uživatelé mohou vidět odkazy v code. Přihlaste se nebo zaregistrujte ZDARMA.


Jen registrovaní uživatelé mohou vidět odkazy v code. Přihlaste se nebo zaregistrujte ZDARMA.


25 říj 2012, 22:05
Profil
Private
Private

Registrován: 21 led 2009, 13:07
Příspěvky: 9
Příspěvek Re: Doba ledová 4 / Ice Age: Continental Drift (2012) 3D

Ice.Age.Continental.Drift.2012.1080p.BluRay.3D.H-SBS.CZE
Re: Doba ledová 4 / Ice Age: Continental Drift (2012) 3D
__.__
Jen registrovaní uživatelé mohou vidět odkazy v code. Přihlaste se nebo zaregistrujte ZDARMA.

_._
Jen registrovaní uživatelé mohou vidět odkazy v code. Přihlaste se nebo zaregistrujte ZDARMA.

)..(
Jen registrovaní uživatelé mohou vidět odkazy v code. Přihlaste se nebo zaregistrujte ZDARMA.

:--:
Jen registrovaní uživatelé mohou vidět odkazy v code. Přihlaste se nebo zaregistrujte ZDARMA.


Naposledy upravil overkill11 dne 29 pro 2012, 17:29, celkově upraveno 3

26 říj 2012, 20:54
Profil
Master Sergant
Master Sergant

Registrován: 22 črc 2011, 14:56
Příspěvky: 129
Příspěvek Re: Doba ledová 4 / Ice Age: Continental Drift (2012) 3D

Re: Doba ledová 4 / Ice Age: Continental Drift (2012) 3D
Doba Ledová 4: Země v pohybu 3D / Ice Age 4 Continental Drift 3D (2012) / CZ

3D SBS! / CZ & EN dabing! / HD

Re: Doba ledová 4 / Ice Age: Continental Drift (2012) 3D
Re: Doba ledová 4 / Ice Age: Continental Drift (2012) 3D

Re: Doba ledová 4 / Ice Age: Continental Drift (2012) 3D
Jen registrovaní uživatelé mohou vidět odkazy v code. Přihlaste se nebo zaregistrujte ZDARMA.


Re: Doba ledová 4 / Ice Age: Continental Drift (2012) 3D

Celková veľkosť: 9,47 GB

Obsah:
Do kin se po třech letech vrací oblíbená mamutí rodinka Mannyho, Ellie, jejich teenagerské dcerunky Broskvičky, lenochoda Sida, šavlozubého tygra Diega a potřeštěného krysoveverčáka Scratta, aby prožili nové napínavé dobrodružství. Právě Scratt, se svou vášní pro žaludy a jejich ukrýváním totiž způsobí katastrofu nevídaných rozměrů. Podaří se mu zasadit svůj žalud takovým způsobem, že pradávná Pangea začne praskat a lámat se na jednotlivé kontinenty a díky pohybu litosférických desek dojde i k rozdělení naší prehistorické party. Ellie a Broskvička zůstanou na jednom kontinentu a Many, Sid a Diego jsou unášeni proudem na ledové kře hluboko do širého oceánu. Ať to stojí, co to stojí, naši tři odvážní přátelé se musí dostat zpátky domů a při tom na ně čeká nejedno velké dobrodružství. Při cestě zpět jim dají zabrat nejenom mořské bouře, přílivové vlny a mořské příšery, ale musejí zvládnout i první společné soužití na jedné malé kře a tak se můžeme těšit na řadu komických scén plných vzájemného špičkování. Shodou okolností a náhod se na jejich provizorní loď, kterou si vytvořili z ledovce, dostane i Sidova babička, kterou skupinka zachrání v příboji mořských vln. Už, už se zdá, že naše partička kamarádů bude zachráněna, když se z oparu mlhy vynoří loď, jenže její podivínská posádka na palubě ani v nejmenším nehodlá našim kamarádům pomoci. Naopak, všichni jsou zajati a dostávají se do ještě větší šlamastiky. (oficiální text distributora)

MediaInfo
Citace:
Originalny nazev: Ice Age 4 Continental Drift
Prelozeny nazev: Doba Ledova 4 Zeme v pohybu
Rok vydani: 2012
Delka: 94
Bitrate/kodek: General
Unique ID : 237801683674617275139236884122412028735 (0xB2E6F037256F3D1CA846D91B5378933F)
Complete name : iag.cd.hsbs.fortrezzor.mkv
Format : Matroska
Format version : Version 2
File size : 9.47 GiB
Duration : 1h 27mn
Overall bit rate : 15.4 Mbps
Encoded date : UTC 2012-10-25 00:14:04
Writing application : mkvmerge v5.7.0 ('The Whirlwind') built on Jul 8 2012 20:08:51
Writing library : libebml v1.2.3 + libmatroska v1.3.0

Video
ID : 1
Format : AVC
Format/Info : Advanced Video Codec
Format profile : [email protected]
Format settings, CABAC : Yes
Format settings, ReFrames : 2 frames
Muxing mode : Header stripping
Codec ID : V_MPEG4/ISO/AVC
Duration : 1h 27mn
Bit rate : 13.2 Mbps
Width : 1 920 pixels
Height : 1 080 pixels
Display aspect ratio : 16:9
Frame rate : 23.976 fps
Color space : YUV
Chroma subsampling : 4:2:0
Bit depth : 8 bits
Scan type : Progressive
Bits/(Pixel*Frame) : 0.265
Stream size : 8.08 GiB (85%)
Writing library : x264 core
Language : English
Default : Yes
Forced : No
Color primaries : BT.709-5, BT.1361, IEC 61966-2-4, SMPTE RP177
Transfer characteristics : BT.709-5, BT.1361
Matrix coefficients : BT.709-5, BT.1361, IEC 61966-2-4 709, SMPTE RP177

Audio #1
ID : 2
Format : DTS
Format/Info : Digital Theater Systems
Muxing mode : Header stripping
Codec ID : A_DTS
Duration : 1h 27mn
Bit rate mode : Constant
Bit rate : 1 510 Kbps
Channel(s) : 6 channels
Channel positions : Front: L C R, Side: L R, LFE
Sampling rate : 48.0 KHz
Bit depth : 24 bits
Compression mode : Lossy
Stream size : 948 MiB (10%)
Language : English
Default : No
Forced : No

Audio #2
ID : 3
Format : AC-3
Format/Info : Audio Coding 3
Mode extension : CM (complete main)
Format settings, Endianness : Big
Muxing mode : Header stripping
Codec ID : A_AC3
Duration : 1h 27mn
Bit rate mode : Constant
Bit rate : 448 Kbps
Channel(s) : 6 channels
Channel positions : Front: L C R, Side: L R, LFE
Sampling rate : 48.0 KHz
Bit depth : 16 bits
Compression mode : Lossy
Stream size : 281 MiB (3%)
Language : Czech
Default : Yes
Forced : No


Re: Doba ledová 4 / Ice Age: Continental Drift (2012) 3D
Re: Doba ledová 4 / Ice Age: Continental Drift (2012) 3D

Re: Doba ledová 4 / Ice Age: Continental Drift (2012) 3D
1,9 GB Linky | Celkova velkost = 9,47 GB | Linky sa daju kombinovat!

Re: Doba ledová 4 / Ice Age: Continental Drift (2012) 3D
Jen registrovaní uživatelé mohou vidět odkazy v code. Přihlaste se nebo zaregistrujte ZDARMA.


Re: Doba ledová 4 / Ice Age: Continental Drift (2012) 3D
Jen registrovaní uživatelé mohou vidět odkazy v code. Přihlaste se nebo zaregistrujte ZDARMA.


Re: Doba ledová 4 / Ice Age: Continental Drift (2012) 3D
Jen registrovaní uživatelé mohou vidět odkazy v code. Přihlaste se nebo zaregistrujte ZDARMA.


Re: Doba ledová 4 / Ice Age: Continental Drift (2012) 3D
Jen registrovaní uživatelé mohou vidět odkazy v code. Přihlaste se nebo zaregistrujte ZDARMA.


Re: Doba ledová 4 / Ice Age: Continental Drift (2012) 3D
Jen registrovaní uživatelé mohou vidět odkazy v code. Přihlaste se nebo zaregistrujte ZDARMA.


Re: Doba ledová 4 / Ice Age: Continental Drift (2012) 3D
Jen registrovaní uživatelé mohou vidět odkazy v code. Přihlaste se nebo zaregistrujte ZDARMA.


Re: Doba ledová 4 / Ice Age: Continental Drift (2012) 3D


Re: Doba ledová 4 / Ice Age: Continental Drift (2012) 3D
Citace:
Nahrávané na 6 serverov! Pri väčšom počte linkov sú linky medzi servermi
kombinovateľné!
Ďakujem poteší ;)


27 říj 2012, 10:30
Profil
Warman
Warman
Uživatelský avatar

Registrován: 19 pro 2006, 16:21
Příspěvky: 1156
Příspěvek Re: Doba ledová 4 / Ice Age: Continental Drift (2012) 3D

Doba ledová 4: Země v pohybu / Ice Age: Continental Drift (2012) [1080p] [3D SBS]

Re: Doba ledová 4 / Ice Age: Continental Drift (2012) 3D
Re: Doba ledová 4 / Ice Age: Continental Drift (2012) 3D

Do kin se po třech letech vrací oblíbená mamutí rodinka Mannyho, Ellie, jejich teenagerské dcerunky Broskvičky, lenochoda Sida, šavlozubého tygra Diega a potřeštěného krysoveverčáka Scratta, aby prožili nové napínavé dobrodružství. Právě Scratt, se svou vášní pro žaludy a jejich ukrýváním totiž způsobí katastrofu nevídaných rozměrů. Podaří se mu zasadit svůj žalud takovým způsobem, že pradávná Pangea začne praskat a lámat se na jednotlivé kontinenty a díky pohybu litosférických desek dojde i k rozdělení naší prehistorické party. Ellie a Broskvička zůstanou na jednom kontinentu a Many, Sid a Diego jsou unášeni proudem na ledové kře hluboko do širého oceánu. Ať to stojí, co to stojí, naši tři odvážní přátelé se musí dostat zpátky domů a při tom na ně čeká nejedno velké dobrodružství. Při cestě zpět jim dají zabrat nejenom mořské bouře, přílivové vlny a mořské příšery, ale musejí zvládnout i první společné soužití na jedné malé kře a tak se můžeme těšit na řadu komických scén plných vzájemného špičkování. Shodou okolností a náhod se na jejich provizorní loď, kterou si vytvořili z ledovce, dostane i Sidova babička, kterou skupinka zachrání v příboji mořských vln. Už, už se zdá, že naše partička kamarádů bude zachráněna, když se z oparu mlhy vynoří loď, jenže její podivínská posádka na palubě ani v nejmenším nehodlá našim kamarádům pomoci. Naopak, všichni jsou zajati a dostávají se do ještě větší šlamastiky.

Animovaný / Dobrodružný / Komedie

USA, 2012, 94 min
Režie: Steve Martino, Mike Thurmeier
Hudba: John Powell

Format : Matroska at 16,0 Mbps
Length : 9,78 GiB for 1h 27mn 45s 506ms
Video #0 : AVC at 13,2 Mbps
Aspect : 1920 x 1080 (1.778) at 23.976 fps
Audio #0 : DTS at 1 510 Kbps
Infos : 6 kanály, 48,0 KHz
Language : en
Audio #1 : AC-3 at 448 Kbps
Infos : 6 kanály, 48,0 KHz
Language : cs
Audio #2 : AC-3 at 448 Kbps
Infos : 6 kanály, 48,0 KHz
Language : sk
Text #0 : PGS
Language : sk
Text #1 : PGS
Language : cs

Sample:
Jen registrovaní uživatelé mohou vidět odkazy v code. Přihlaste se nebo zaregistrujte ZDARMA.


CSFD:
Jen registrovaní uživatelé mohou vidět odkazy v code. Přihlaste se nebo zaregistrujte ZDARMA.


Share-Rapid
Jen registrovaní uživatelé mohou vidět odkazy v code. Přihlaste se nebo zaregistrujte ZDARMA.

Ulož.to
Jen registrovaní uživatelé mohou vidět odkazy v code. Přihlaste se nebo zaregistrujte ZDARMA.


Přidán záznam na opravu dat 3%

Bez hesla a kombinovatelné při shodném počtu.

_________________
Svět ztrácí génie. Einstein umřel. Mozart umřel. A mně je taky nějak blbě.


Naposledy upravil José dne 05 led 2014, 17:36, celkově upraveno 2

30 říj 2012, 15:26
Profil
Private
Private

Registrován: 29 črc 2008, 13:50
Příspěvky: 8
Příspěvek Re: Doba ledová 4 / Ice Age: Continental Drift (2012) 3D

Pokud někdo máte Dobu Ledovou 4, u které je česká zvuková stopa ve formátu .ac3 posunuta, zde je přečasovaná tak, aby seděla.
Stačí vložit do souboru .mkv pomocí programu MKVmerge.

Jen registrovaní uživatelé mohou vidět odkazy v code. Přihlaste se nebo zaregistrujte ZDARMA.


Enjoy!


26 lis 2012, 12:57
Profil
Corporal
Corporal

Registrován: 07 kvě 2009, 10:38
Příspěvky: 60
Příspěvek Doba ledová 4 / Ice Age: Continental Drift (2012) 3D

Doba ledová 4: Země v pohybu/3D-sbs/1080/audio 5.1 CZ,EN

Animovaný / Dobrodružný / Komedie
USA, 2012, 94 min


Režie:
Steve Martino, Mike Thurmeier
Hudba:
John Powell
Hrají:
Ray Romano, Queen Latifah, John Leguizamo, Denis Leary, Chris Wedge, Josh Peck, Jennifer Lopez, Seann William Scott, Aziz Ansari,
Peter Dinklage, Keke Palmer, Ester Dean, Aubrey Graham, Wanda Sykes, Kunal Nayyar, Nick Frost, Nicki Minaj, Rebel Wilson, Alan Tudyk, Heather Morris,
Josh Gad, Alain Chabat, Jennette McCurdy, Simon Pegg.


www.csfd.cz/film/281739-doba-ledova-4-zeme-v-pohybu/

Doba ledová 4 / Ice Age: Continental Drift (2012) 3DDoba ledová 4 / Ice Age: Continental Drift (2012) 3D

Formát videa: 3D H-SBS, přehratelné přímo z HD na TV, CZaudio 5.1dts.
Výborná kvalita bez problémů - odzkoušeno.

Doba ledová 4 / Ice Age: Continental Drift (2012) 3D
Jen registrovaní uživatelé mohou vidět odkazy v code. Přihlaste se nebo zaregistrujte ZDARMA.


Doba ledová 4 / Ice Age: Continental Drift (2012) 3D
Jen registrovaní uživatelé mohou vidět odkazy v code. Přihlaste se nebo zaregistrujte ZDARMA.


Doba ledová 4 / Ice Age: Continental Drift (2012) 3D
Jen registrovaní uživatelé mohou vidět odkazy v code. Přihlaste se nebo zaregistrujte ZDARMA.


velikost............10,7 GB
typ..........3D
formát...... matroska (mkv)
rozlišení...... 1920x1080 (SBS)
jazyk....... CZ(5.1) EN(5.1)

3D - přehratelné přímo z HD na TV
SBS - dva zúžené obrazy vedle sebe
Pro přehrátí na PC můžete použít např.
Stereoscopic player

Rorbalit ve Winraru - přidán záznam na opravu dat 2%

Linky jsou volně šiřitelné.
Linky lze kombinovat.
Bez hesla.
V případě reupu nebo dotazu me kontaktujte na: [email protected]


29 led 2013, 09:19
Profil
Zobrazit příspěvky za předchozí:  Seřadit podle  
Odeslat nové téma Odpovědět na téma  [ Příspěvků: 7 ] 

Všechny časy jsou v UTC + 1 hodina


Nemůžete zakládat nová témata v tomto fóru
Nemůžete odpovídat v tomto fóru
Nemůžete upravovat své příspěvky v tomto fóru
Nemůžete mazat své příspěvky v tomto fóru
Nemůžete přikládat soubory v tomto fóru









StahovaniZaSMS Pizza Modena MP3 free download