fastshare
Amazing Spider-Man, The (2012) 3D
Vypnout statistiky
KATEGORIEPOSLEDNÍ PŘÍSPĚVKYPOSLEDNÍ OZNÁMENÍSTATISTIKY UŽIVATELE
Nick: Anonymous
Příspěvků: 3361
Hodnost: Warman
Varování: 0
---
Právě je 25 zář 2018, 14:08





Všechny časy jsou v UTC + 1 hodina


Pravidla fóra







Odeslat nové téma Odpovědět na téma  [ Příspěvků: 2 ] 
 Amazing Spider-Man, The (2012) 3D 
Autor Zpráva
Colonel 3 rd class
Colonel 3 rd class

Registrován: 05 led 2010, 08:30
Příspěvky: 471
Příspěvek Amazing Spider-Man, The (2012) 3D

The.Amazing.Spider-Man.2012.1080p.3D.BluRay.Half-SBS.CZ

Amazing Spider-Man, The (2012) 3D
CSFD
Jen registrovaní uživatelé mohou vidět odkazy v code. Přihlaste se nebo zaregistrujte ZDARMA.


SAMPLE
Jen registrovaní uživatelé mohou vidět odkazy v code. Přihlaste se nebo zaregistrujte ZDARMA.


Citace:
Format : Matroska
Format version : Version 3 / Version 2
File size : 8.88 GiB
Duration : 2h 16mn
Overall bit rate : 9 325 Kbps

Video
ID : 1
Format : AVC
Format/Info : Advanced Video Codec
Format profile : [email protected]
MultiView_Count : 2
MultiView_Layout : Side by Side (left eye first)
Format settings, CABAC : Yes
Format settings, ReFrames : 4 frames
Muxing mode : Header stripping
Codec ID : V_MPEG4/ISO/AVC
Duration : 2h 16mn
Bit rate : 6 990 Kbps
Width : 1 920 pixels
Height : 1 080 pixels
Display aspect ratio : 16:9
Frame rate mode : Constant
Frame rate : 23.976 fps
Color space : YUV
Chroma subsampling : 4:2:0
Bit depth : 8 bits
Scan type : Progressive
Bits/(Pixel*Frame) : 0.141
Stream size : 6.66 GiB (75%)
Language : English
Default : No
Forced : No

Audio #1
ID : 2
Format : DTS
Format/Info : Digital Theater Systems
Muxing mode : Header stripping
Codec ID : A_DTS
Duration : 2h 16mn
Bit rate mode : Constant
Bit rate : 1 510 Kbps
Channel(s) : 6 channels
Channel positions : Front: L C R, Side: L R, LFE
Sampling rate : 48.0 KHz
Bit depth : 24 bits
Compression mode : Lossy
Stream size : 1.44 GiB (16%)
Language : English
Default : No
Forced : No

Audio #2
ID : 3
Format : AC-3
Format/Info : Audio Coding 3
Mode extension : CM (complete main)
Format settings, Endianness : Big
Muxing mode : Header stripping
Codec ID : A_AC3
Duration : 2h 16mn
Bit rate mode : Constant
Bit rate : 640 Kbps
Channel(s) : 6 channels
Channel positions : Front: L C R, Side: L R, LFE
Sampling rate : 48.0 KHz
Bit depth : 16 bits
Compression mode : Lossy
Stream size : 624 MiB (7%)
Language : Czech
Default : Yes
Forced : No

Text #1
ID : 4
Format : PGS
Muxing mode : zlib
Codec ID : S_HDMV/PGS
Codec ID/Info : The same subtitle format used on BDs/HD-DVDs
Language : Czech
Default : No
Forced : No

Text #2
ID : 5
Format : PGS
Muxing mode : zlib
Codec ID : S_HDMV/PGS
Codec ID/Info : The same subtitle format used on BDs/HD-DVDs
Language : Slovak
Default : No
Forced : No


Amazing Spider-Man, The (2012) 3D
Jen registrovaní uživatelé mohou vidět odkazy v code. Přihlaste se nebo zaregistrujte ZDARMA.


Amazing Spider-Man, The (2012) 3D
Jen registrovaní uživatelé mohou vidět odkazy v code. Přihlaste se nebo zaregistrujte ZDARMA.


Amazing Spider-Man, The (2012) 3D
Jen registrovaní uživatelé mohou vidět odkazy v code. Přihlaste se nebo zaregistrujte ZDARMA.


Přidán záznam na opravu dat 5%


Naposledy upravil sellenen dne 02 dub 2014, 09:34, celkově upraveno 1
Smazány nefunkční odkazy.


27 říj 2012, 08:04
Profil
Corporal
Corporal

Registrován: 07 kvě 2009, 10:38
Příspěvky: 60
Příspěvek Amazing Spider-Man, The (2012) 3D

Amazing Spider-Man/3D-sbs/1080/audio 5.1 CZ,EN

Akční / Dobrodružný / Fantasy / Thriller
USA, 2012, 137 min

Režie:
Marc Webb
Hudba:
James Horner
Hrají:
Andrew Garfield, Emma Stone, Rhys Ifans, Sally Field, Martin Sheen, Denis Leary, C. Thomas Howell, Chris Zylka, Stan Lee, Irrfan Khan, Kelsey Chow, Michael Massee, Michael Papajohn, Skyler Gisondo, Embeth Davidtz, Campbell Scott, Barbara Eve Harris, Teena Byrd


The Amazing Spider-Man je příběhem Petera Parkera (Garfield), mezi svými vrstevníky nepříliš oblíbeného středoškoláka, kterého v dětství opustili rodiče a jeho výchovy se ujali strýček Ben (Sheen) a tetička May (Field). Jako většina dospívajících se Peter snaží zjistit, kým vlastně je a proč se z něj stal člověk, kterým je. Současně má plnou hlavu starostí se svou první středoškolskou láskou Gwen Stacyovou (Stone) a společně proplouvají úskalími lásky, závazků a tajemství. Když Peter objeví tajemný kufřík, který náležel jeho otci, pustí se do pátrání po důvodech zmizení svých rodičů – které ho zavede přímo do společnosti Oscorp a do laboratoře dr. Curta Connorse (Ifans), bývalého otcova kolegy. Zatímco je Spider-Manovi předurčeno, aby se střetl s Connorsovým alter-egem Lizardem, je Peter nucen učinit zásadní rozhodnutí o způsobu využití svých schopností, která navždy změní jeho život a definují povahu jeho cesty k hrdinství. (oficiální text distributora)

http://www.csfd.cz/film/230573-amazing-spider-man/

Amazing Spider-Man, The (2012) 3DAmazing Spider-Man, The (2012) 3D

Formát videa: 3D H-SBS, přehratelné přímo z HD na TV, CZaudio 5.1dts.
Výborná kvalita bez problémů - odzkoušeno.

Amazing Spider-Man, The (2012) 3D
Jen registrovaní uživatelé mohou vidět odkazy v code. Přihlaste se nebo zaregistrujte ZDARMA.


Amazing Spider-Man, The (2012) 3D
Jen registrovaní uživatelé mohou vidět odkazy v code. Přihlaste se nebo zaregistrujte ZDARMA.


Amazing Spider-Man, The (2012) 3D
Jen registrovaní uživatelé mohou vidět odkazy v code. Přihlaste se nebo zaregistrujte ZDARMA.


Amazing Spider-Man, The (2012) 3D
Jen registrovaní uživatelé mohou vidět odkazy v code. Přihlaste se nebo zaregistrujte ZDARMA.


Amazing Spider-Man, The (2012) 3D
Jen registrovaní uživatelé mohou vidět odkazy v code. Přihlaste se nebo zaregistrujte ZDARMA.


velikost............13,8 GB
typ..........3D
formát...... matroska (mkv)
rozlišení...... 1920x1080 (SBS)
jazyk....... CZ(5.1) EN(5.1)

3D - přehratelné přímo z HD na TV
SBS - dva zúžené obrazy vedle sebe
Pro přehrátí na PC můžete použít např.
Stereoscopic player

Rorbalit ve Winraru - přidán záznam na opravu dat 2%

Linky jsou volně šiřitelné.
Linky lze kombinovat.
Bez hesla.
V případě reupu nebo dotazu me kontaktujte na: [email protected]


Naposledy upravil sellenen dne 26 srp 2014, 10:35, celkově upraveno 2
Smazány nefunkční odkazy.


29 led 2013, 09:35
Profil
Zobrazit příspěvky za předchozí:  Seřadit podle  
Odeslat nové téma Odpovědět na téma  [ Příspěvků: 2 ] 

Všechny časy jsou v UTC + 1 hodina


Nemůžete zakládat nová témata v tomto fóru
Nemůžete odpovídat v tomto fóru
Nemůžete upravovat své příspěvky v tomto fóru
Nemůžete mazat své příspěvky v tomto fóru
Nemůžete přikládat soubory v tomto fóru









StahovaniZaSMS Pizza Modena MP3 free download