fastshare
Norman a duchové / ParaNorman (2012) / 3D /
Vypnout statistiky
KATEGORIEPOSLEDNÍ PŘÍSPĚVKYPOSLEDNÍ OZNÁMENÍSTATISTIKY UŽIVATELE
Nick: Anonymous
Příspěvků: 3361
Hodnost: Warman
Varování: 0
---
Právě je 13 lis 2018, 02:32





Všechny časy jsou v UTC + 1 hodina


Pravidla fóra







Odeslat nové téma Odpovědět na téma  [ Příspěvků: 4 ] 
 Norman a duchové / ParaNorman (2012) / 3D / 
Autor Zpráva
Colonel 2 nd class
Colonel 2 nd class

Registrován: 23 kvě 2009, 14:44
Příspěvky: 419
Příspěvek Norman a duchové / ParaNorman (2012) / 3D /

Paranorman.2012.1080p.bluray.3D.h-sbs.dts.x264-publichd

Audio:Czech 6CH AC3 448 Kbps,Slovak 6CH AC3 448 Kbps,ENG DTS 6CH 1510 Kbps

Norman a duchové / ParaNorman (2012) / 3D /
Norman a duchové / ParaNorman (2012) / 3D / Norman a duchové / ParaNorman (2012) / 3D / Norman a duchové / ParaNorman (2012) / 3D / Norman a duchové / ParaNorman (2012) / 3D /

Jen registrovaní uživatelé mohou vidět odkazy v code. Přihlaste se nebo zaregistrujte ZDARMA.


Animovaný / Dobrodružný / Komedie / Fantasy

USA, 2012, 93 min
Režie: Sam Fell, Chris Butler
Hudba: Jon Brion
Hrají: Kodi Smit-McPhee, Anna Kendrick, Casey Affleck, Christopher Mintz-Plasse,
Leslie Mann, Jeff Garlin, Elaine Stritch, Bernard Hill, Jodelle Ferland,
Tempestt Bledsoe, John Goodman, Scott Menville


Jen registrovaní uživatelé mohou vidět odkazy v code. Přihlaste se nebo zaregistrujte ZDARMA.



Sample:

Jen registrovaní uživatelé mohou vidět odkazy v code. Přihlaste se nebo zaregistrujte ZDARMA.


Download:

Jen registrovaní uživatelé mohou vidět odkazy v code. Přihlaste se nebo zaregistrujte ZDARMA.



Jen registrovaní uživatelé mohou vidět odkazy v code. Přihlaste se nebo zaregistrujte ZDARMA.


Bez hesla,balene vo winrare


Naposledy upravil iwann dne 26 pro 2012, 10:49, celkově upraveno 3

11 pro 2012, 14:28
Profil
Colonel 3 rd class
Colonel 3 rd class

Registrován: 05 led 2010, 08:30
Příspěvky: 471
Příspěvek Re: Norman a duchové / ParaNorman (2012) / 3D /

ParaNorman (2012) Blu-ray 3D EUR 1080p AVC DTS 5.1

Re: Norman a duchové / ParaNorman (2012) / 3D /
CSFD
Jen registrovaní uživatelé mohou vidět odkazy v code. Přihlaste se nebo zaregistrujte ZDARMA.

__.__
Citace:
DISC INFO:

Disc Title: PARANORMAN_3D
Disc Size: 49 559 796 058 bytes
BD-Java: Yes
Extras: Blu-ray 3D
Menu: Yes

PLAYLIST REPORT:

Name: 00800.MPLS
Length: 1:32:09.148 (h:m:s.ms)
Size: 35 731 507 200 bytes
Total Bitrate: 51,70 Mbps

VIDEO:

Codec Bitrate Description
----- ------- -----------
MPEG-4 AVC Video 24076 kbps 1080p / 23,976 fps / 16:9 / High Profile 4.1
MPEG-4 MVC Video 14991 kbps

AUDIO:

Codec Language Bitrate Description
----- -------- ------- -----------
DTS-HD Master Audio English 3648 kbps 5.1 / 48 kHz / 3648 kbps / 24-bit (DTS Core: 5.1 / 48 kHz / 1509 kbps / 24-bit)
DTS Audio Portuguese 768 kbps 5.1 / 48 kHz / 768 kbps / 24-bit
DTS Audio Czech 768 kbps 5.1 / 48 kHz / 768 kbps / 24-bit
DTS Audio Spanish 768 kbps 5.1 / 48 kHz / 768 kbps / 24-bit
Dolby Digital Audio Polish 448 kbps 5.1 / 48 kHz / 448 kbps / DN -4dB
DTS Audio Russian 768 kbps 5.1 / 48 kHz / 768 kbps / 24-bit
DTS Audio Thai 768 kbps 5.1 / 48 kHz / 768 kbps / 24-bit
Dolby Digital Audio Bulgarian 448 kbps 5.1 / 48 kHz / 448 kbps / DN -4dB
Dolby Digital Audio Slovak 448 kbps 5.1 / 48 kHz / 448 kbps / DN -4dB
Dolby Digital Audio English 192 kbps 2.0 / 48 kHz / 192 kbps / DN -4dB / Dolby Surround

SUBTITLES:

Codec Language Bitrate Description
----- -------- ------- -----------
Presentation Graphics English 37,936 kbps
Presentation Graphics Portuguese 30,359 kbps
Presentation Graphics Czech 27,575 kbps
Presentation Graphics Spanish 30,676 kbps
Presentation Graphics Polish 28,705 kbps
Presentation Graphics Russian 31,761 kbps
Presentation Graphics Thai 24,531 kbps
Presentation Graphics Bulgarian 30,997 kbps
Presentation Graphics Estonian 30,705 kbps
Presentation Graphics Latvian 27,717 kbps
Presentation Graphics Lithuanian 29,826 kbps
Presentation Graphics English 81,776 kbps
Presentation Graphics Portuguese 1,445 kbps
Presentation Graphics Czech 1,153 kbps
Presentation Graphics Spanish 1,451 kbps
Presentation Graphics Polish 1,190 kbps
Presentation Graphics Russian 1,488 kbps
Presentation Graphics Thai 0,921 kbps
Presentation Graphics Bulgarian 1,247 kbps
Presentation Graphics Slovak 1,855 kbps



Re: Norman a duchové / ParaNorman (2012) / 3D /
Jen registrovaní uživatelé mohou vidět odkazy v code. Přihlaste se nebo zaregistrujte ZDARMA.


Re: Norman a duchové / ParaNorman (2012) / 3D /
Jen registrovaní uživatelé mohou vidět odkazy v code. Přihlaste se nebo zaregistrujte ZDARMA.


Re: Norman a duchové / ParaNorman (2012) / 3D /
Jen registrovaní uživatelé mohou vidět odkazy v code. Přihlaste se nebo zaregistrujte ZDARMA.


Přidán záznam na opravu dat 5%


01 bře 2013, 17:13
Profil
Colonel 3 rd class
Colonel 3 rd class

Registrován: 05 led 2010, 08:30
Příspěvky: 471
Příspěvek Re: Norman a duchové / ParaNorman (2012) / 3D /

ParaNorman.2012.1080p.BluRay.3D.H-SBS.DTS.x264-PublicHD

Re: Norman a duchové / ParaNorman (2012) / 3D /
CSFD
Jen registrovaní uživatelé mohou vidět odkazy v code. Přihlaste se nebo zaregistrujte ZDARMA.

__.__
Citace:
Format : Matroska
Format version : Version 4 / Version 2
File size : 9.13 GiB
Duration : 1h 32mn
Overall bit rate : 14.2 Mbps

Video
ID : 1
Format : AVC
Format/Info : Advanced Video Codec
Format profile : [email protected]
Format settings, CABAC : Yes
Format settings, ReFrames : 2 frames
Muxing mode : Header stripping
Codec ID : V_MPEG4/ISO/AVC
Duration : 1h 32mn
Bit rate : 11.2 Mbps
Width : 1 920 pixels
Height : 1 080 pixels
Display aspect ratio : 16:9
Frame rate mode : Constant
Frame rate : 23.976 fps
Color space : YUV
Chroma subsampling : 4:2:0
Bit depth : 8 bits
Scan type : Progressive
Bits/(Pixel*Frame) : 0.225
Stream size : 7.20 GiB (79%)
Writing library : x264 core
Language : English
Default : Yes
Forced : No
Color primaries : BT.709
Transfer characteristics : BT.709
Matrix coefficients : BT.709

Audio #1
ID : 2
Format : DTS
Format/Info : Digital Theater Systems
Mode : 16
Format settings, Endianness : Big
Muxing mode : Header stripping
Codec ID : A_DTS
Duration : 1h 32mn
Bit rate mode : Constant
Bit rate : 1 509 Kbps
Channel(s) : 6 channels
Channel positions : Front: L C R, Side: L R, LFE
Sampling rate : 48.0 KHz
Bit depth : 24 bits
Compression mode : Lossy
Stream size : 995 MiB (11%)
Language : English
Default : Yes
Forced : No

Audio #2
ID : 3
Format : DTS
Format/Info : Digital Theater Systems
Mode : 16
Format settings, Endianness : Big
Muxing mode : Header stripping
Codec ID : A_DTS
Duration : 1h 32mn
Bit rate mode : Constant
Bit rate : 768 Kbps
Channel(s) : 6 channels
Channel positions : Front: L C R, Side: L R, LFE
Sampling rate : 48.0 KHz
Bit depth : 24 bits
Compression mode : Lossy
Stream size : 507 MiB (5%)
Language : Czech
Default : No
Forced : No

Audio #3
ID : 4
Format : AC-3
Format/Info : Audio Coding 3
Mode extension : CM (complete main)
Format settings, Endianness : Big
Muxing mode : Header stripping
Codec ID : A_AC3
Duration : 1h 32mn
Bit rate mode : Constant
Bit rate : 448 Kbps
Channel(s) : 6 channels
Channel positions : Front: L C R, Side: L R, LFE
Sampling rate : 48.0 KHz
Bit depth : 16 bits
Compression mode : Lossy
Stream size : 295 MiB (3%)
Language : Slovak
Default : No
Forced : No



Re: Norman a duchové / ParaNorman (2012) / 3D /
Jen registrovaní uživatelé mohou vidět odkazy v code. Přihlaste se nebo zaregistrujte ZDARMA.


Re: Norman a duchové / ParaNorman (2012) / 3D /
Jen registrovaní uživatelé mohou vidět odkazy v code. Přihlaste se nebo zaregistrujte ZDARMA.


Re: Norman a duchové / ParaNorman (2012) / 3D /
Jen registrovaní uživatelé mohou vidět odkazy v code. Přihlaste se nebo zaregistrujte ZDARMA.


Přidán záznam na opravu dat 5%


Naposledy upravil sellenen dne 20 bře 2015, 09:10, celkově upraveno 1
Smazány nefunkční odkazy


06 bře 2013, 03:40
Profil
Private
Private

Registrován: 27 črc 2012, 07:27
Příspěvky: 8
Příspěvek Re: Norman a duchové / ParaNorman (2012) / 3D /

Vše nefunkční :(
Nemá někdo náhodou?


24 črc 2016, 07:32
Profil
Zobrazit příspěvky za předchozí:  Seřadit podle  
Odeslat nové téma Odpovědět na téma  [ Příspěvků: 4 ] 

Všechny časy jsou v UTC + 1 hodina


Nemůžete zakládat nová témata v tomto fóru
Nemůžete odpovídat v tomto fóru
Nemůžete upravovat své příspěvky v tomto fóru
Nemůžete mazat své příspěvky v tomto fóru
Nemůžete přikládat soubory v tomto fóru









StahovaniZaSMS Pizza Modena MP3 free download