fastshare
Rychlý prachy - všechny díly
Vypnout statistiky
KATEGORIEPOSLEDNÍ PŘÍSPĚVKYPOSLEDNÍ OZNÁMENÍSTATISTIKY UŽIVATELE
Nick: Anonymous
Příspěvků: 3381
Hodnost: Warman
Varování: 0
---
Právě je 19 úno 2018, 19:08





Všechny časy jsou v UTC + 1 hodina




Odeslat nové téma Odpovědět na téma  [ Příspěvků: 32 ]  Přejít na stránku Předchozí  1, 2, 3
 Rychlý prachy - všechny díly 
Autor Zpráva
Warman
Warman

Registrován: 11 kvě 2009, 11:32
Příspěvky: 1811
Příspěvek Re: Rychlý prachy - všechny díly

Rychlyprachy.cz - 136 Karolína (PRAHA - 25.1.2018)

Re: Rychlý prachy - všechny díly

Lidi, nebudete věřit, na koho jsem narazil v centru Prahy. Na Karolínu alias Daisy Lee, nejkontroverznější českou pornoherečku! Jestli chcete vidět, jaká je Karolína ve skutečnosti, tak máte jedinečnou možnost. Řeknu vám, že něco takovýho jsem ještě v životě nezažil. Bylo úplně jednoduchý jí ukecat, protože tahle česká národní coura udělá za prachy cokoliv. Pozvala mě k sobě domů a bylo jí úplně u prdele, že se zrovna vrací z gangbangu s černochama. V autě si cestou ještě chladila rozmrdanou píču. Ta holka je totiž naprosto šílená. Prcali jsme na balkonu a ta děvka sprostá flusala mrdku po sousedech!!! Neskutečná ostuda! Zachraň se, kdo můžeš!

Re: Rychlý prachy - všechny díly

Jen registrovaní uživatelé mohou vidět odkazy v code. Přihlaste se nebo zaregistrujte ZDARMA.


31 led 2018, 06:41
Profil
Warrant
Warrant

Registrován: 24 pro 2007, 06:49
Příspěvky: 161
Bydliště: Pod pařezem
Příspěvek Re: Rychlý prachy - všechny díly

Rychlý prachy 136- Karolína alias Daisy Lee(PRAHA - 25.1.2018)

:-_-:
Re: Rychlý prachy - všechny díly

info video:
General
Format : Matroska
Format version : Version 4 / Version 2
File size : 936 MiB
Duration : 25 min 13 s
Overall bit rate mode : Variable
Overall bit rate : 5 188 kb/s
Encoded date : UTC 2018-01-30 20:00:31
Writing application : mkvmerge v14.0.0 ('Flow') 64bit
Writing library : libebml v1.3.4 + libmatroska v1.4.5

Video
ID : 2
Format : AVC
Format/Info : Advanced Video Codec
Format profile : [email protected]
Format settings : CABAC / 3 Ref Frames
Format settings, CABAC : Yes
Format settings, ReFrames : 3 frames
Codec ID : V_MPEG4/ISO/AVC
Duration : 25 min 13 s
Bit rate mode : Variable
Bit rate : 5 000 kb/s
Width : 1 920 pixels
Height : 1 080 pixels
Display aspect ratio : 16:9
Frame rate mode : Constant
Frame rate : 25.000 FPS
Standard : PAL
Color space : YUV
Chroma subsampling : 4:2:0
Bit depth : 8 bits
Scan type : Progressive
Bits/(Pixel*Frame) : 0.096
Stream size : 901 MiB (96%)
Language : English
Default : Yes
Forced : No
Color range : Limited

Audio
ID : 1
Format : AAC
Format/Info : Advanced Audio Codec
Format profile : LC
Codec ID : A_AAC-2
Duration : 25 min 13 s
Bit rate : 192 kb/s
Channel(s) : 2 channels
Channel positions : Front: L R
Sampling rate : 48.0 kHz
Frame rate : 46.875 FPS (1024 SPF)
Compression mode : Lossy
Stream size : 34.2 MiB (4%)



Lidi, nebudete věřit, na koho jsem narazil v centru Prahy.
Na Karolínu alias Daisy Lee, nejkontroverznější českou pornoherečku! Jestli chcete vidět, jaká je Karolína ve skutečnosti, tak máte jedinečnou možnost. Řeknu vám, že něco takovýho jsem ještě v životě nezažil. Bylo úplně jednoduchý jí ukecat, protože tahle česká národní coura udělá za prachy cokoliv.
Pozvala mě k sobě domů a bylo jí úplně u prdele, že se zrovna vrací z gangbangu s černochama. V autě si cestou ještě chladila rozmrdanou píču. Ta holka je totiž naprosto šílená.
Prcali jsme na balkonu a ta děvka sprostá flusala mrdku po sousedech!!! Neskutečná ostuda! Zachraň se, kdo můžeš!


)..(
Jen registrovaní uživatelé mohou vidět odkazy v code. Přihlaste se nebo zaregistrujte ZDARMA.


01 úno 2018, 18:14
Profil
Zobrazit příspěvky za předchozí:  Seřadit podle  
Odeslat nové téma Odpovědět na téma  [ Příspěvků: 32 ]  Přejít na stránku Předchozí  1, 2, 3

Všechny časy jsou v UTC + 1 hodina


Nemůžete zakládat nová témata v tomto fóru
Nemůžete odpovídat v tomto fóru
Nemůžete upravovat své příspěvky v tomto fóru
Nemůžete mazat své příspěvky v tomto fóru
Nemůžete přikládat soubory v tomto fóru









StahovaniZaSMS Pizza Modena MP3 free download