fastshare
Annihilation (2018)
Vypnout statistiky
KATEGORIEPOSLEDNÍ PŘÍSPĚVKYPOSLEDNÍ OZNÁMENÍSTATISTIKY UŽIVATELE
Nick: Anonymous
Příspěvků: 3367
Hodnost: Warman
Varování: 0
---
Právě je 25 kvě 2018, 17:40





Všechny časy jsou v UTC + 1 hodina


Pravidla fóra


    Pravidla pro Filmy - Novinky >>> ZDE <<< - Nepatří sem ripy z orig. DVD a Blu-Ray!





Odeslat nové téma Odpovědět na téma  [ Příspěvků: 4 ] 
 Annihilation (2018) 
Autor Zpráva
Warman
Warman
Uživatelský avatar

Registrován: 31 srp 2015, 17:58
Příspěvky: 2891
Příspěvek Annihilation (2018)

Annihilation (2018)
Annihilation (2018)
Jen registrovaní uživatelé mohou vidět odkazy v code. Přihlaste se nebo zaregistrujte ZDARMA.

Annihilation.2018.1080p.NF.WEB-DL.DD5.1.x264-NTG
AUDIO - EN
Jen registrovaní uživatelé mohou vidět odkazy v code. Přihlaste se nebo zaregistrujte ZDARMA.

Annihilation (2018)
Annihilation (2018)
Jen registrovaní uživatelé mohou vidět odkazy v code. Přihlaste se nebo zaregistrujte ZDARMA.

titulky CZ
Jen registrovaní uživatelé mohou vidět odkazy v code. Přihlaste se nebo zaregistrujte ZDARMA.


Annihilation.2018.CZ titulky.WEB-DL.Avi
TITULKY - CZ v OBRAZEAnnihilation (2018)
AUDIO - EN
Použitý zdroj : Annihilation.2018.1080p.NF.WEB-DL.DD5.1.x264-NTG
Jen registrovaní uživatelé mohou vidět odkazy v code. Přihlaste se nebo zaregistrujte ZDARMA.

Annihilation (2018)
Annihilation (2018)
Jen registrovaní uživatelé mohou vidět odkazy v code. Přihlaste se nebo zaregistrujte ZDARMA.


Naposledy upravil RR900034 dne 13 bře 2018, 11:46, celkově upraveno 1

12 bře 2018, 11:46
Profil
Colonel 3 rd class
Colonel 3 rd class

Registrován: 15 zář 2017, 11:53
Příspěvky: 495
Příspěvek Re: Annihilation (2018)

Annihilation (2018)


Re: Annihilation (2018)


Jen registrovaní uživatelé mohou vidět odkazy v code. Přihlaste se nebo zaregistrujte ZDARMA.



Annihilation.2018.1080p.WEB-DL.DD5.1.x264.CZ.Titulky


Format : Matroska
Format version : Version 4 / Version 2
File size : 3.25 GiB
Duration : 1h 55mn
Overall bit rate : 4 023 Kbps

Video
ID : 1
Format : AVC
Format/Info : Advanced Video Codec
Format profile : [email protected]
Format settings, CABAC : Yes
Format settings, ReFrames : 3 frames
Codec ID : V_MPEG4/ISO/AVC
Duration : 1h 55mn
Bit rate mode : Variable
Bit rate : 3 650 Kbps
Maximum bit rate : 5 475 Kbps
Width : 1 920 pixels
Height : 1 080 pixels
Display aspect ratio : 16:9
Frame rate : 23.976 fps
Color space : YUV
Chroma subsampling : 4:2:0
Bit depth : 8 bits
Scan type : Progressive
Bits/(Pixel*Frame) : 0.073
Stream size : 2.87 GiB (88%)

Audio
ID : 2
Format : AC-3
Format/Info : Audio Coding 3
Mode extension : CM (complete main)
Codec ID : A_AC3
Duration : 1h 55mn
Bit rate mode : Constant
Bit rate : 384 Kbps
Channel(s) : 6 channels
Channel positions : Front: L C R, Side: L R, LFE
Sampling rate : 48.0 KHz
Bit depth : 16 bits
Compression mode : Lossy
Stream size : 317 MiB (10%)
Title : AC3 5.1
Language : English

Text #1
ID : 3
Format : UTF-8
Codec ID : S_TEXT/UTF8
Codec ID/Info : UTF-8 Plain Text
Language : Czech

Text #2
ID : 4
Format : UTF-8
Codec ID : S_TEXT/UTF8
Codec ID/Info : UTF-8 Plain Text
Language : English



Jen registrovaní uživatelé mohou vidět odkazy v code. Přihlaste se nebo zaregistrujte ZDARMA.


13 bře 2018, 10:47
Profil
Sergeant
Sergeant

Registrován: 15 črc 2008, 21:29
Příspěvky: 84
Příspěvek Re: Annihilation (2018)

Annihilation (2018) [WEB-RIP]

Akční / Dobrodružný / Fantasy / Sci-Fi / Thriller / Horor
Na Zemi se objevil nový, neznámý ekosystém. Každý, kdo se ho rozhodl prozkoumat, v něm nenávratně zmizí. Až na manžela mladé bioložky, která se teď vydává v jeho stopách, aby pochopila, proč se tak změnil.

INFO:
Jen registrovaní uživatelé mohou vidět odkazy v code. Přihlaste se nebo zaregistrujte ZDARMA.


Re: Annihilation (2018)
________________________________________________________________________________

1181 MB

Video: 768x320 - XviD/H263 - 23.976 fps - 1200 Kbps
Audio: ENG - MP3 - 160 kbps - 2ch Dolby
Titulky: CZ Čas: 1:55:30

SD - XviD
Jen registrovaní uživatelé mohou vidět odkazy v code. Přihlaste se nebo zaregistrujte ZDARMA.


1872 MB

Video: 1280x536 - XviD/H263 - 23.976 fps - 2000 Kbps
Audio: ENG - MP3 - 160 kbps - 2ch Dolby
Titulky: CZ Čas: 1:55:30

HD - XviD
Jen registrovaní uživatelé mohou vidět odkazy v code. Přihlaste se nebo zaregistrujte ZDARMA.

________________________________________________________________________________

1011 MB

Video: 1280x536 - AVC/H264 - 23.976 fps - 1000 Kbps
Audio: ENG - AAC - 160 kbps - 2ch Dolby
Titulky: CZ + ENG Čas: 1:55:30

HD - AVC
Jen registrovaní uživatelé mohou vidět odkazy v code. Přihlaste se nebo zaregistrujte ZDARMA.


1444 MB

Video: 1280x536 - AVC/H264 - 23.976 fps - 1500 Kbps
Audio: ENG - AAC - 160 kbps - 2ch Dolby
Titulky: CZ + ENG Čas: 1:55:30

HD - AVC
Jen registrovaní uživatelé mohou vidět odkazy v code. Přihlaste se nebo zaregistrujte ZDARMA.


1905 MB

Video: 1920x800 - AVC/H264 - 23.976 fps - 2000 Kbps
Audio: ENG - AAC - 192 kbps - 2ch Dolby
Titulky: CZ + ENG Čas: 1:55:30

FullHD - AVC
Jen registrovaní uživatelé mohou vidět odkazy v code. Přihlaste se nebo zaregistrujte ZDARMA.

________________________________________________________________________________

980 MB

Video: 1280x536 - HEVC/H265 - 23.976 fps - 700 Kbps
Audio: ENG - HE-AAC - 160 kbps - 2ch Dolby
Titulky: CZ + ENG Čas: 1:55:30

HD - HEVC
Jen registrovaní uživatelé mohou vidět odkazy v code. Přihlaste se nebo zaregistrujte ZDARMA.


1634 MB

Video: 1920x800 - HEVC/H265 - 23.976 fps - 1700 Kbps
Audio: ENG - HE-AAC - 224 kbps - 6ch
Titulky: CZ + ENG Čas: 1:55:30

FullHD - HEVC
Jen registrovaní uživatelé mohou vidět odkazy v code. Přihlaste se nebo zaregistrujte ZDARMA.

________________________________________________________________________________


14 bře 2018, 08:00
Profil
Warrant
Warrant

Registrován: 09 bře 2009, 18:27
Příspěvky: 193
Příspěvek Re: Annihilation (2018)

Annihilation.2018.webrip.xvid.ac3-fgt.avi + CZ Titulky


Cover:

Re: Annihilation (2018)

Info:

Jazyk: Eng
Titulky: Cz

Csfd:
Jen registrovaní uživatelé mohou vidět odkazy v code. Přihlaste se nebo zaregistrujte ZDARMA.

Info:
Jen registrovaní uživatelé mohou vidět odkazy v code. Přihlaste se nebo zaregistrujte ZDARMA.

Download:
Jen registrovaní uživatelé mohou vidět odkazy v code. Přihlaste se nebo zaregistrujte ZDARMA.


17 bře 2018, 00:44
Profil
Zobrazit příspěvky za předchozí:  Seřadit podle  
Odeslat nové téma Odpovědět na téma  [ Příspěvků: 4 ] 

Všechny časy jsou v UTC + 1 hodina


Nemůžete zakládat nová témata v tomto fóru
Nemůžete odpovídat v tomto fóru
Nemůžete upravovat své příspěvky v tomto fóru
Nemůžete mazat své příspěvky v tomto fóru
Nemůžete přikládat soubory v tomto fóru









StahovaniZaSMS Pizza Modena MP3 free download