fastshare
Robo KAZÍK & SALKO Band - Megamixy
Vypnout statistiky
KATEGORIEPOSLEDNÍ PŘÍSPĚVKYPOSLEDNÍ OZNÁMENÍSTATISTIKY UŽIVATELE
Nick: Anonymous
Příspěvků: 3388
Hodnost: Warman
Varování: 0
---
Právě je 23 říj 2017, 07:15





Všechny časy jsou v UTC + 1 hodina


Pravidla fóra







Odeslat nové téma Odpovědět na téma  [ Příspěvek: 1 ] 
 Robo KAZÍK & SALKO Band - Megamixy 
Autor Zpráva
Sergeant
Sergeant

Registrován: 26 bře 2008, 16:26
Příspěvky: 112
Příspěvek Robo KAZÍK & SALKO Band - Megamixy

Robo KAZÍK & SALKO Band - Megamixy

Rok vydania: 2005
Formát : mp3
Kvalita : 192 Kbps


Mix 1:
01. Zahoď starosti
02. Júlia si čarovná
03. Vzdialená
04. Čo sa mi môže stať
05. Zabúdaj, zabúdaj
06. Plavovláska
07. Diridonda
08. Otvárajte kasíno
09. Nalej mi vína, Malvína
10. Čardáš dvoch sŕdc


Mix 2:
11. Elena
12. Učiteľka tanca
13. Haló tam
14. Vonia kakao
15. Smoliar
16. Láska má párik krídel
17. Čerešne
18. Toto sólo patrí nám


Mix 3:
19. Boby
20. Nervózna família
21. Láska moja, hviezdy sa Ťa boja
22. Veronika
23. V dolinách
24. Marína
25. Primášovo srdce


Mix 4:
26. Papoušek kakadu
27. Což takhle dát si špenát
28. Tuhle rundu platím já
29. Kávu si osladím
30. Podvod
31. Dej mi víc své lásky
32. Zrcadlo
33. Veď mě dál cesto má
34. Whisky, to je moje gusto
35. Lásko má, já stůňu
36. Já už jdu
37. Mašinka
38. Není nutno

Jen registrovaní uživatelé mohou vidět odkazy v code. Přihlaste se nebo zaregistrujte ZDARMA.

Robo KAZÍK & SALKO Band - Megamixy
Salco MegaMix 1
General
Citace:
Complete name Salco megamix 1.mp3
Format : MPEG Audio
File size : 27.0 MiB
Duration : 11mn 48s
Overall bit rate mode : Constant
Overall bit rate : 320 Kbps
Writing library : LAME3.99.5

Audio
Format : MPEG Audio
Format version : Version 1
Format profile : Layer 3
Mode : Joint stereo
Duration : 11mn 48s
Bit rate mode : Constant
Bit rate : 320 Kbps
Channel(s) : 2 channels
Sampling rate : 48.0 KHz
Compression mode : Lossy
Stream size : 27.0 MiB (100%)
Writing library : LAME3.99.5


Jen registrovaní uživatelé mohou vidět odkazy v code. Přihlaste se nebo zaregistrujte ZDARMA.


Salco MegaMix 2
Citace:
Complete name Salco MegaMix 2.mp3
Format : MPEG Audio
File size : 21.6 MiB
Duration : 9mn 25s
Overall bit rate mode : Constant
Overall bit rate : 320 Kbps
Writing library : LAME3.99.5

Audio
Format : MPEG Audio
Format version : Version 1
Format profile : Layer 3
Mode : Joint stereo
Mode extension : MS Stereo
Duration : 9mn 25s
Bit rate mode : Constant
Bit rate : 320 Kbps
Channel(s) : 2 channels
Sampling rate : 48.0 KHz
Compression mode : Lossy
Stream size : 21.6 MiB (100%)
Writing library : LAME3.99.5

Jen registrovaní uživatelé mohou vidět odkazy v code. Přihlaste se nebo zaregistrujte ZDARMA.


Salco MegaMix 3
Citace:
Complete name : C:\Users\hp\Music\Salco MegaMix 3.mp3
Format : MPEG Audio
File size : 23.5 MiB
Duration : 10mn 16s
Overall bit rate mode : Constant
Overall bit rate : 320 Kbps
Writing library : LAME3.99.5

Audio
Format : MPEG Audio
Format version : Version 1
Format profile : Layer 3
Mode : Joint stereo
Mode extension : MS Stereo
Duration : 10mn 16s
Bit rate mode : Constant
Bit rate : 320 Kbps
Channel(s) : 2 channels
Sampling rate : 48.0 KHz
Compression mode : Lossy
Stream size : 23.5 MiB (100%)
Writing library : LAME3.99.5


Jen registrovaní uživatelé mohou vidět odkazy v code. Přihlaste se nebo zaregistrujte ZDARMA.


Salco MegaMix 4-
Jen registrovaní uživatelé mohou vidět odkazy v code. Přihlaste se nebo zaregistrujte ZDARMA.


20 zář 2015, 18:59
Profil
Zobrazit příspěvky za předchozí:  Seřadit podle  
Odeslat nové téma Odpovědět na téma  [ Příspěvek: 1 ] 

Všechny časy jsou v UTC + 1 hodina


Nemůžete zakládat nová témata v tomto fóru
Nemůžete odpovídat v tomto fóru
Nemůžete upravovat své příspěvky v tomto fóru
Nemůžete mazat své příspěvky v tomto fóru
Nemůžete přikládat soubory v tomto fóru









StahovaniZaSMS Pizza Modena MP3 free download