fastshare
Banged Up Abroad / Locked Up Abroad (2020) [Season 13] [TVRi
Vypnout statistiky
KATEGORIEPOSLEDNÍ PŘÍSPĚVKYPOSLEDNÍ OZNÁMENÍSTATISTIKY UŽIVATELE
Nick: Anonymous
Příspěvků: 2307
Hodnost: Warman
Varování: 0
---
Právě je 11 srp 2020, 20:04





Všechny časy jsou v UTC + 1 hodina




Odeslat nové téma Odpovědět na téma  [ Příspěvků: 4 ] 
 Banged Up Abroad / Locked Up Abroad (2020) [Season 13] [TVRi 
Autor Zpráva
Private 2 nd class
Private 2 nd class
Uživatelský avatar

Registrován: 11 úno 2019, 14:17
Příspěvky: 44
Bydliště: Republic of Macedonia
Příspěvek Banged Up Abroad / Locked Up Abroad (2020) [Season 13] [TVRi

Locked Up Abroad - Undercover Biker (2020) S13E01 TVRip [Serbian Subtitle Hardcoded]

Banged Up Abroad / Locked Up Abroad (2020) [Season 13] [TVRi

Citace:
Series information
Title: Banged Up Abroad / Locked Up Abroad
Genres: Action, Crime, Drama
Description: Banged Up Abroad is a British documentary/docudrama television series that was produced for Channel Five and that premiered in March 2006. It is broadcast under the title "Locked Up Abroad" in the United States and other parts of the world on the National Geographic Channel. It features stories of people who have been arrested while travelling abroad, usually for trying to smuggle illegal drugs out of a particular country and have received lengthy prison sentences as a result. Among the stories to have been told is that of British woman Sandra Gregory, who spent several years in the Klong Prem Central Prison after being convicted of trying to smuggle heroin out of Thailand. A second series was broadcast in 2007 with a third series during August and September 2008, and a fourth in October 2008.
Rating: 8.2
Production: RAW ; Distributors: National Geographic Channel

Episode information
Season: 13
Episode: 01
Title: Undercover Biker
Description: For the first time, informer Charles Falco describes how he infiltrated the deadly Vagos motorcycle gang.


IMDb:
Jen registrovaní uživatelé mohou vidět odkazy v code. Přihlaste se nebo zaregistrujte ZDARMA.


Jen registrovaní uživatelé mohou vidět odkazy v code. Přihlaste se nebo zaregistrujte ZDARMA.


Screenshots:
https://funkyimg.com/i/368o8.jpg

RapidGator:
Jen registrovaní uživatelé mohou vidět odkazy v code. Přihlaste se nebo zaregistrujte ZDARMA.


06 črc 2020, 23:51
Profil
Private 2 nd class
Private 2 nd class
Uživatelský avatar

Registrován: 11 úno 2019, 14:17
Příspěvky: 44
Bydliště: Republic of Macedonia
Příspěvek Re: Banged Up Abroad / Locked Up Abroad (2020) [Season 13] [

Locked Up Abroad - Korean Ecstasy King (2020) S13E02 TVRip [Serbian Subtitle Hardcoded]

Re: Banged Up Abroad / Locked Up Abroad (2020) [Season 13] [

IMDB information:
Citace:
Series information
Title: Banged Up Abroad / Locked Up Abroad
Genres: Action, Crime, Drama
Description: Banged Up Abroad is a British documentary/docudrama television series that was produced for Channel Five and that premiered in March 2006. It is broadcast under the title "Locked Up Abroad" in the United States and other parts of the world on the National Geographic Channel. It features stories of people who have been arrested while travelling abroad, usually for trying to smuggle illegal drugs out of a particular country and have received lengthy prison sentences as a result. Among the stories to have been told is that of British woman Sandra Gregory, who spent several years in the Klong Prem Central Prison after being convicted of trying to smuggle heroin out of Thailand. A second series was broadcast in 2007 with a third series during August and September 2008, and a fourth in October 2008.
Rating: 8.2
Production: RAW ; Distributors: National Geographic Channel

Episode information
Season: 13
Episode: 02
Title: Korean Ecstasy King
Description: A teacher becomes the kingpin of an MDMA operation.


IMDb:
Jen registrovaní uživatelé mohou vidět odkazy v code. Přihlaste se nebo zaregistrujte ZDARMA.



Serbian Subtitle Hardcoded

Jen registrovaní uživatelé mohou vidět odkazy v code. Přihlaste se nebo zaregistrujte ZDARMA.

Screenshots:
https://funkyimg.com/i/36g9V.jpg
RapidGator:
Jen registrovaní uživatelé mohou vidět odkazy v code. Přihlaste se nebo zaregistrujte ZDARMA.


13 črc 2020, 23:28
Profil
Private 2 nd class
Private 2 nd class
Uživatelský avatar

Registrován: 11 úno 2019, 14:17
Příspěvky: 44
Bydliště: Republic of Macedonia
Příspěvek Re: Banged Up Abroad / Locked Up Abroad (2020) [Season 13] [

Locked Up Abroad - Pop Star Smuggler (2020) S13E03 TVRip [Serbian Subtitle Hardcoded]

Re: Banged Up Abroad / Locked Up Abroad (2020) [Season 13] [

IMDB information:
Citace:
Series information
Title: Banged Up Abroad / Locked Up Abroad
Genres: Action, Crime, Drama
Description: Banged Up Abroad is a British documentary/docudrama television series that was produced for Channel Five and that premiered in March 2006. It is broadcast under the title "Locked Up Abroad" in the United States and other parts of the world on the National Geographic Channel. It features stories of people who have been arrested while travelling abroad, usually for trying to smuggle illegal drugs out of a particular country and have received lengthy prison sentences as a result. Among the stories to have been told is that of British woman Sandra Gregory, who spent several years in the Klong Prem Central Prison after being convicted of trying to smuggle heroin out of Thailand. A second series was broadcast in 2007 with a third series during August and September 2008, and a fourth in October 2008.
Rating: 8.2
Production: RAW ; Distributors: National Geographic Channel

Episode information
Season: 13
Episode: 03
Title: Pop Star Smuggler
Description: A struggling Latino pop star risks all by smuggling heroin.


IMDb:
https://www.imdb.com/title/tt1020109/

Citace:
Serbian Subtitle Hardcoded

General
Unique ID : 28047118525945070158549709110373309278 (0x1519ADB4F28E9D1F341B7928C610DB5E)
Complete name : 3. Pop Star Smuggler.mkv
Format : Matroska
Format version : Version 4
File size : 382 MiB
Duration : 44 min 33 s
Overall bit rate : 1 199 kb/s
Movie name : index.m3u8
Writing application : Lavf57.29.101
Writing library : Lavf57.29.101

Video
ID : 1
Format : AVC
Format/Info : Advanced Video Codec
Format profile : [email protected]
Format settings : CABAC / 4 Ref Frames
Format settings, CABAC : Yes
Format settings, Reference fra : 4 frames
Codec ID : V_MPEG4/ISO/AVC
Duration : 44 min 33 s
Bit rate : 1 047 kb/s
Width : 1 048 pixels
Height : 576 pixels
Display aspect ratio : 16:9
Frame rate mode : Constant
Frame rate : 25.000 FPS
Color space : YUV
Chroma subsampling : 4:2:0
Bit depth : 8 bits
Scan type : Progressive
Bits/(Pixel*Frame) : 0.069
Stream size : 334 MiB (87%)
Writing library : x264 core 148
Encoding settings : cabac=1 / ref=1 / deblock=1:0:0 / analyse=0x1:0x1 / me=dia / subme=1 / psy=1 / psy_rd=1.00:0.00 / mixed_ref=0 / me_range=16 / chroma_me=1 / trellis=0 / 8x8dct=0 / cqm=0 / deadzone=21,11 / fast_pskip=1 / chroma_qp_offset=0 / threads=6 / lookahead_threads=1 / sliced_threads=0 / nr=0 / decimate=1 / interlaced=0 / bluray_compat=0 / constrained_intra=0 / bframes=3 / b_pyramid=2 / b_adapt=1 / b_bias=0 / direct=1 / weightb=1 / open_gop=0 / weightp=1 / keyint=250 / keyint_min=25 / scenecut=40 / intra_refresh=0 / rc=crf / mbtree=0 / crf=23.0 / qcomp=0.60 / qpmin=0 / qpmax=69 / qpstep=4 / ip_ratio=1.40 / pb_ratio=1.30 / aq=1:1.00
Default : Yes
Forced : No
DURATION : 0:44:33.585000000

Audio
ID : 2
Format : MPEG Audio
Format version : Version 1
Format profile : Layer 3
Format settings : Joint stereo / MS Stereo
Codec ID : A_MPEG/L3
Codec ID/Hint : MP3
Duration : 44 min 33 s
Bit rate mode : Constant
Bit rate : 128 kb/s
Channel(s) : 2 channels
Sampling rate : 44.1 kHz
Compression mode : Lossy
Stream size : 40.8 MiB (11%)
Writing library : Lavc57.32.100 libmp3lame
Default : Yes
Forced : No
DURATION : 0:44:33.495000000


Screenshots:
https://funkyimg.com/i/36oAf.jpg

RapidGator:
Jen registrovaní uživatelé mohou vidět odkazy v code. Přihlaste se nebo zaregistrujte ZDARMA.


20 črc 2020, 23:56
Profil
Private 2 nd class
Private 2 nd class
Uživatelský avatar

Registrován: 11 úno 2019, 14:17
Příspěvky: 44
Bydliště: Republic of Macedonia
Příspěvek Re: Banged Up Abroad / Locked Up Abroad (2020) [Season 13] [

Locked Up Abroad - Peruvian Prison Break (2020) S13E09 TVRip [Serbian Subtitle Hardcoded]

Re: Banged Up Abroad / Locked Up Abroad (2020) [Season 13] [

Series information
Title: Banged Up Abroad / Locked Up Abroad
Genres: Action, Crime, Drama
Description: Banged Up Abroad is a British documentary/docudrama television series that was produced for Channel Five and that premiered in March 2006. It is broadcast under the title "Locked Up Abroad" in the United States and other parts of the world on the National Geographic Channel. It features stories of people who have been arrested while travelling abroad, usually for trying to smuggle illegal drugs out of a particular country and have received lengthy prison sentences as a result. Among the stories to have been told is that of British woman Sandra Gregory, who spent several years in the Klong Prem Central Prison after being convicted of trying to smuggle heroin out of Thailand. A second series was broadcast in 2007 with a third series during August and September 2008, and a fourth in October 2008.
Rating: 8.2
Production: RAW ; Distributors: National Geographic Channel

Episode information
Season: 13
Episode: 09
Title: Peruvian Prison Break
Description: An exotic dancer leaves for the Peruvian cocaine underworld.

IMDb:
Jen registrovaní uživatelé mohou vidět odkazy v code. Přihlaste se nebo zaregistrujte ZDARMA.


Citace:
Serbian Subtitle Hardcoded

General
Unique ID : 322014714282189505801406791700270982659 (0xF241C7300CD5B46F41C3D4E23EBEA603)
Complete name : 9. Peruvian Prison Break.mkv
Format : Matroska
Format version : Version 4
File size : 409 MiB
Duration : 44 min 18 s
Overall bit rate : 1 290 kb/s
Movie name : 28070
Writing application : Lavf57.29.101
Writing library : Lavf57.29.101

Video
ID : 1
Format : AVC
Format/Info : Advanced Video Codec
Format profile : [email protected]
Format settings : CABAC / 4 Ref Frames
Format settings, CABAC : Yes
Format settings, Reference fra : 4 frames
Codec ID : V_MPEG4/ISO/AVC
Bit rate : 1 136 kb/s
Width : 1 048 pixels
Height : 576 pixels
Display aspect ratio : 16:9
Frame rate mode : Variable
Color space : YUV
Chroma subsampling : 4:2:0
Bit depth : 8 bits
Scan type : Progressive
Writing library : x264 core 148
Encoding settings : cabac=1 / ref=1 / deblock=1:0:0 / analyse=0x1:0x1 / me=dia / subme=1 / psy=1 / psy_rd=1.00:0.00 / mixed_ref=0 / me_range=16 / chroma_me=1 / trellis=0 / 8x8dct=0 / cqm=0 / deadzone=21,11 / fast_pskip=1 / chroma_qp_offset=0 / threads=6 / lookahead_threads=1 / sliced_threads=0 / nr=0 / decimate=1 / interlaced=0 / bluray_compat=0 / constrained_intra=0 / bframes=3 / b_pyramid=2 / b_adapt=1 / b_bias=0 / direct=1 / weightb=1 / open_gop=0 / weightp=1 / keyint=250 / keyint_min=25 / scenecut=40 / intra_refresh=0 / rc=crf / mbtree=0 / crf=23.0 / qcomp=0.60 / qpmin=0 / qpmax=69 / qpstep=4 / ip_ratio=1.40 / pb_ratio=1.30 / aq=1:1.00
Default : Yes
Forced : No
DURATION : 0:44:18.025000000

Audio
ID : 2
Format : MPEG Audio
Format version : Version 1
Format profile : Layer 3
Format settings : Joint stereo / MS Stereo
Codec ID : A_MPEG/L3
Codec ID/Hint : MP3
Duration : 44 min 18 s
Bit rate mode : Constant
Bit rate : 128 kb/s
Channel(s) : 2 channels
Sampling rate : 44.1 kHz
Compression mode : Lossy
Stream size : 40.6 MiB (10%)
Writing library : Lavc57.32.100 libmp3lame
Default : Yes
Forced : No
DURATION : 0:44:18.025000000


Screenshots:
https://funkyimg.com/i/36w3p.jpg

RapidGator:
Jen registrovaní uživatelé mohou vidět odkazy v code. Přihlaste se nebo zaregistrujte ZDARMA.


28 črc 2020, 07:03
Profil
Zobrazit příspěvky za předchozí:  Seřadit podle  
Odeslat nové téma Odpovědět na téma  [ Příspěvků: 4 ] 

Všechny časy jsou v UTC + 1 hodina


Nemůžete zakládat nová témata v tomto fóru
Nemůžete odpovídat v tomto fóru
Nemůžete upravovat své příspěvky v tomto fóru
Nemůžete mazat své příspěvky v tomto fóru
Nemůžete přikládat soubory v tomto fóru









StahovaniZaSMS Pizza Modena MP3 free download