fastshare
Wonder Woman (2017)
Vypnout statistiky
KATEGORIEPOSLEDNÍ PŘÍSPĚVKYPOSLEDNÍ OZNÁMENÍSTATISTIKY UŽIVATELE
Nick: Anonymous
Příspěvků: 3383
Hodnost: Warman
Varování: 0
---
Právě je 18 pro 2017, 00:27





Všechny časy jsou v UTC + 1 hodina


Pravidla fóra







Odeslat nové téma Odpovědět na téma  [ Příspěvků: 5 ] 
 Wonder Woman (2017) 
Autor Zpráva
Warman
Warman

Registrován: 26 kvě 2015, 00:50
Příspěvky: 1075
Příspěvek Wonder Woman (2017)

Wonder Woman (2017)

CSFD:

Jen registrovaní uživatelé mohou vidět odkazy v code. Přihlaste se nebo zaregistrujte ZDARMA.


Wonder Woman (2017)

Wonder.Woman.2017.720p.WEB-DL.x264.CZ
Wonder.Woman.2017.1080p.WEB-DL.x264.CZ


Wonder.Woman.2017.720p.WEB-DL.x264.CZ
Jazyk: Czech 2.0 224 Kbps , English 5.1 384 Kbps
Subtitles: Czech forced , Czech , English

iNFO

Jen registrovaní uživatelé mohou vidět odkazy v code. Přihlaste se nebo zaregistrujte ZDARMA.


Wonder Woman (2017)
Jen registrovaní uživatelé mohou vidět odkazy v code. Přihlaste se nebo zaregistrujte ZDARMA.

Přidán záznam na opravu dat 5%.
Wonder.Woman.2017.1080p.WEB-DL.x264.CZ
Jazyk: Czech 2.0 224 Kbps , English 5.1 384 Kbps
Subtitles: Czech forced , Czech , English
iNFO

Jen registrovaní uživatelé mohou vidět odkazy v code. Přihlaste se nebo zaregistrujte ZDARMA.


Wonder Woman (2017)
Jen registrovaní uživatelé mohou vidět odkazy v code. Přihlaste se nebo zaregistrujte ZDARMA.

Přidán záznam na opravu dat 5%.


05 zář 2017, 05:06
Profil
Warman
Warman

Registrován: 26 kvě 2015, 00:50
Příspěvky: 1075
Příspěvek Re: Wonder Woman (2017)

Wonder Woman (2017)

CSFD:

Jen registrovaní uživatelé mohou vidět odkazy v code. Přihlaste se nebo zaregistrujte ZDARMA.


Re: Wonder Woman (2017)

Wonder.Woman.2017.720p.BluRay.x264.CZ
Wonder.Woman.2017.1080p.BluRay.x264.CZ


Wonder.Woman.2017.720p.BluRay.x264.CZ
Jazyk: Czech 2.0 224 Kbps , English 5.1 640 Kbps
Subtitles: Czech forced , Czech , English

iNFO

Jen registrovaní uživatelé mohou vidět odkazy v code. Přihlaste se nebo zaregistrujte ZDARMA.


Re: Wonder Woman (2017)
Jen registrovaní uživatelé mohou vidět odkazy v code. Přihlaste se nebo zaregistrujte ZDARMA.

Jen registrovaní uživatelé mohou vidět odkazy v code. Přihlaste se nebo zaregistrujte ZDARMA.

Přidán záznam na opravu dat 5%.
Wonder.Woman.2017.1080p.BluRay.x264.CZ
Jazyk: Czech 2.0 224 Kbps , English 5.1 640 Kbps
Subtitles: Czech forced , Czech , English
iNFO

Jen registrovaní uživatelé mohou vidět odkazy v code. Přihlaste se nebo zaregistrujte ZDARMA.


Re: Wonder Woman (2017)
Jen registrovaní uživatelé mohou vidět odkazy v code. Přihlaste se nebo zaregistrujte ZDARMA.

Jen registrovaní uživatelé mohou vidět odkazy v code. Přihlaste se nebo zaregistrujte ZDARMA.

Přidán záznam na opravu dat 5%.


06 zář 2017, 05:06
Profil
Warman
Warman

Registrován: 26 kvě 2015, 00:50
Příspěvky: 1075
Příspěvek Re: Wonder Woman (2017)

Wonder Woman (2017)

CSFD:

Jen registrovaní uživatelé mohou vidět odkazy v code. Přihlaste se nebo zaregistrujte ZDARMA.


Re: Wonder Woman (2017)

Wonder.Woman.2017.720p.BluRay.x264.DD5.1.CZ
Wonder.Woman.2017.1080p.BluRay.x264.DD5.1.CZ
Wonder.Woman.2017.1080p.BluRay.x264.DD5.1.CZ


Wonder.Woman.2017.720p.BluRay.x264.DD5.1CZ
Jazyk: Czech 5.1 448 Kbps , English 5.1 640 Kbps
Subtitles: Czech forced , Czech , English

iNFO

Jen registrovaní uživatelé mohou vidět odkazy v code. Přihlaste se nebo zaregistrujte ZDARMA.


Re: Wonder Woman (2017)
Jen registrovaní uživatelé mohou vidět odkazy v code. Přihlaste se nebo zaregistrujte ZDARMA.

Přidán záznam na opravu dat 5%.
Wonder.Woman.2017.1080p.BluRay.x264.DD5.1.CZ
Jazyk: Czech 5.1 448 Kbps , English 5.1 640 Kbps
Subtitles: Czech forced , Czech , English
iNFO

Jen registrovaní uživatelé mohou vidět odkazy v code. Přihlaste se nebo zaregistrujte ZDARMA.


Re: Wonder Woman (2017)
Jen registrovaní uživatelé mohou vidět odkazy v code. Přihlaste se nebo zaregistrujte ZDARMA.

Přidán záznam na opravu dat 5%.
Wonder.Woman.2017.1080p.BluRay.x264.DD5.1.CZ
Jazyk: Czech 5.1 448 Kbps , English 5.1 640 Kbps
Subtitles: Czech forced , Czech , English
iNFO

Jen registrovaní uživatelé mohou vidět odkazy v code. Přihlaste se nebo zaregistrujte ZDARMA.


Re: Wonder Woman (2017)
Jen registrovaní uživatelé mohou vidět odkazy v code. Přihlaste se nebo zaregistrujte ZDARMA.

Přidán záznam na opravu dat 5%.


22 zář 2017, 22:06
Profil
Private
Private

Registrován: 10 pro 2009, 13:31
Příspěvky: 2
Příspěvek Re: Wonder Woman (2017)

K uplne dokonalosti jeste anglicky zvuk v DTS v tvych remuxech a nema to chybu :)


23 zář 2017, 11:00
Profil
Captain
Captain

Registrován: 30 pro 2007, 17:16
Příspěvky: 286
Příspěvek Re: Wonder Woman (2017)

Wonder Woman (2017)

Video/Zdroj: BluRay 1080p
Audio: CZ 5.1ch AC-3, EN 5.1ch AC-3
Titulky: CZ, EN

Re: Wonder Woman (2017)

Jen registrovaní uživatelé mohou vidět odkazy v code. Přihlaste se nebo zaregistrujte ZDARMA.


Citace:
Format : Matroska
Format version : Version 4 / Version 2
File size : 15.7 GiB
Duration : 2 h 21 min
Overall bit rate : 15.9 Mb/s

Video
Format : AVC
Format profile : [email protected]
Duration : 2 h 21 min
Bit rate : 14.5 Mb/s
Width : 1 920 pixels
Height : 800 pixels
Display aspect ratio : 2.40:1
Frame rate mode : Constant
Frame rate : 23.976 (24000/1001) FPS
Color space : YUV
Chroma subsampling : 4:2:0
Bit depth : 8 bits
Scan type : Progressive
Bits/(Pixel*Frame) : 0.395
Stream size : 14.4 GiB (91%)

Audio #1
Format : AC-3
Duration : 2 h 21 min
Bit rate mode : Constant
Bit rate : 640 kb/s
Channel(s) : 6 channels
Channel positions : Front: L C R, Side: L R, LFE
Sampling rate : 48.0 kHz
Frame rate : 31.250 FPS (1536 SPF)
Bit depth : 16 bits
Compression mode : Lossy
Stream size : 647 MiB (4%)
Language : English
Default : No
Forced : No

Audio #2
Format : AC-3
Duration : 2 h 21 min
Bit rate mode : Constant
Bit rate : 448 kb/s
Channel(s) : 6 channels
Channel positions : Front: L C R, Side: L R, LFE
Sampling rate : 48.0 kHz
Frame rate : 31.250 FPS (1536 SPF)
Bit depth : 16 bits
Compression mode : Lossy
Stream size : 453 MiB (3%)
Language : Czech
Default : Yes
Forced : Yes

Text #1
Format : UTF-8
Language : Czech
Default : Yes
Forced : Yes

Text #2
Format : ASS
Language : Czech
Default : No
Forced : No

Text #3
Format : UTF-8
Language : Czech
Default : No
Forced : No

Text #4
Format : ASS
Language : Czech
Default : No
Forced : No

Text #5
Format : PGS
Language : Czech
Default : No
Forced : No

Text #6
Format : PGS
Language : Czech
Default : No
Forced : No

Text #7
Format : UTF-8
Language : English
Default : No
Forced : No


Jen registrovaní uživatelé mohou vidět odkazy v code. Přihlaste se nebo zaregistrujte ZDARMA.


Balené bez kompresie. Bez hesla. Pridaný záznam pre opravu dát 5%.


08 pro 2017, 18:15
Profil
Zobrazit příspěvky za předchozí:  Seřadit podle  
Odeslat nové téma Odpovědět na téma  [ Příspěvků: 5 ] 

Všechny časy jsou v UTC + 1 hodina


Nemůžete zakládat nová témata v tomto fóru
Nemůžete odpovídat v tomto fóru
Nemůžete upravovat své příspěvky v tomto fóru
Nemůžete mazat své příspěvky v tomto fóru
Nemůžete přikládat soubory v tomto fóru









StahovaniZaSMS Pizza Modena MP3 free download