fastshare
Horizont události / Event Horizon (1997)
Vypnout statistiky
KATEGORIEPOSLEDNÍ PŘÍSPĚVKYPOSLEDNÍ OZNÁMENÍSTATISTIKY UŽIVATELE
Nick: Anonymous
Příspěvků: 2306
Hodnost: Warman
Varování: 0
---
Právě je 24 říj 2020, 18:31





Všechny časy jsou v UTC + 1 hodina


Pravidla fóra







Odeslat nové téma Odpovědět na téma  [ Příspěvků: 4 ] 
 Horizont události / Event Horizon (1997) 
Autor Zpráva
Colonel
Colonel
Uživatelský avatar

Registrován: 18 úno 2008, 17:27
Příspěvky: 363
Příspěvek Horizont události / Event Horizon (1997)

Název: Horizont události / Event Horizon (1997)

Zdroj: Event.Horizon.1080p.CZ.EN

Horizont události / Event Horizon (1997)

Horizont události / Event Horizon (1997)


Horizont události / Event Horizon (1997)

Jen registrovaní uživatelé mohou vidět odkazy v code. Přihlaste se nebo zaregistrujte ZDARMA.


Horizont události / Event Horizon (1997)


Citace:
Horor / Sci-Fi / Thriller / Mysteriózní
Velká Británie / USA, 1997, 92 min


Režie: Paul W.S. Anderson
Hudba: Michael Kamen
Hrají: Laurence Fishburne, Sam Neill, Kathleen Quinlan, Joely Richardson, Richard T. Jones, Jack Noseworthy, Jason Isaacs, Sean Pertwee, Emily Booth


V roce 2040 se vydala moderní kosmická loď Horizont události prozkoumat hranice naší sluneční soustavy. Za planetou Neptun zmizela beze stopy. Po sedmi letech však opět vydala signál ze kterého se podařilo vyluštit dvě slova, která zněla jako "spaste mě...", nebo jako "spaste se...". Na průzkumně - záchranou misi se vydává kosmická loď Louis and Clarke vedená kapitánem Millerem (Laurence Fishburne). Na palubu je přibrán i konstruktér Horizontu události dr. Weir (Sam Neill), který však posádce nepodává moc přesvědčivé vysvětlení o původu a stavbě lodi. Po příletu k lodi se začnou dít podivné věci z nichž první je, že při ofocení lodi bioscanerem se celá loď ukáže jako biologicky aktivní. Brzy posádku čeká hrůzné zjištění, kde loď celých sedm let pobývala. Tam, kde končí lidský rozum a začínají už jenom paranoidní dohady...

Format : Matroska
File size : 8.05 GiB
Duration : 1h 35mn
Overall bit rate : 12.0 Mbps
Encoded date : UTC 2009-02-13 16:03:44
Writing application : mkvmerge v2.4.1 ('Use Me') built on Dec 5 2008 18:30:05
Writing library : libebml v0.7.7 + libmatroska v0.8.1

Video
ID : 1
Format : AVC
Format/Info : Advanced Video Codec
Format profile : [email protected]
Format settings, CABAC : Yes
Format settings, ReFrames : 4 frames
Muxing mode : Container [email protected]
Codec ID : V_MPEG4/ISO/AVC
Duration : 1h 35mn
Bit rate : 10.3 Mbps
Width : 1 920 pixels
Height : 820 pixels
Display aspect ratio : 2.40:1
Original display aspect ratio : 2.35:1
Frame rate : 23.976 fps
Color space : YUV
Chroma subsampling : 4:2:0
Bit depth : 8 bits
Scan type : Progressive
Bits/(Pixel*Frame) : 0.273
Stream size : 6.75 GiB (84%)

Audio #1
ID : 2
Format : DTS
Format/Info : Digital Theater Systems
Codec ID : A_DTS
Duration : 1h 35mn
Bit rate mode : Constant
Bit rate : 1 510 Kbps
Channel(s) : 6 channels
Channel positions : Front: L C R, Side: L R, LFE
Sampling rate : 48.0 KHz
Bit depth : 24 bits
Stream size : 1.01 GiB (13%)
Title : DTS 6ch
Language : English

Audio #2
ID : 3
Format : AC-3
Format/Info : Audio Coding 3
Mode extension : CM (complete main)
Codec ID : A_AC3
Duration : 1h 35mn
Bit rate mode : Constant
Bit rate : 192 Kbps
Channel(s) : 2 channels
Channel positions : Front: L R
Sampling rate : 48.0 KHz
Bit depth : 16 bits
Stream size : 132 MiB (2%)
Title : AC3 2ch
Language : Czech

Text #1
ID : 4
Format : UTF-8
Codec ID : S_TEXT/UTF8
Codec ID/Info : UTF-8 Plain Text
Title : CZ sub
Language : Czech

Text #2
ID : 5
Format : UTF-8
Codec ID : S_TEXT/UTF8
Codec ID/Info : UTF-8 Plain Text
Title : SK sub
Language : Slovak

Text #3
ID : 6
Format : UTF-8
Codec ID : S_TEXT/UTF8
Codec ID/Info : UTF-8 Plain Text
Title : EN sub
Language : English



Horizont události / Event Horizon (1997)

Horizont události / Event Horizon (1997)

Jen registrovaní uživatelé mohou vidět odkazy v code. Přihlaste se nebo zaregistrujte ZDARMA.


Horizont události / Event Horizon (1997)

Jen registrovaní uživatelé mohou vidět odkazy v code. Přihlaste se nebo zaregistrujte ZDARMA.


Horizont události / Event Horizon (1997)

Jen registrovaní uživatelé mohou vidět odkazy v code. Přihlaste se nebo zaregistrujte ZDARMA.



Horizont události / Event Horizon (1997)

Jen registrovaní uživatelé mohou vidět odkazy v code. Přihlaste se nebo zaregistrujte ZDARMA.

Zákaz Reuploadu mého příspěvku na jakýkoliv server a vynášení na Torenty a jiná warez fora,
než na jaká postuji !!!


06 zář 2011, 03:05
Profil
Uploader
Uploader
Uživatelský avatar

Registrován: 13 kvě 2007, 10:16
Příspěvky: 76
Příspěvek Re: Horizont události / Event Horizon (1997)

Mrtvé. Má někdo?


24 kvě 2014, 10:39
Profil
Warman
Warman
Uživatelský avatar

Registrován: 25 lis 2008, 11:02
Příspěvky: 7324
Příspěvek Re: Horizont události / Event Horizon (1997)

Horizont události / Event Horizon (1997)

Event.Horizon.1080p.CZ.EN
Re: Horizont události / Event Horizon (1997)
CSFD
Jen registrovaní uživatelé mohou vidět odkazy v code. Přihlaste se nebo zaregistrujte ZDARMA.

MediaInfo
Jen registrovaní uživatelé mohou vidět odkazy v code. Přihlaste se nebo zaregistrujte ZDARMA.

Euroshare
Jen registrovaní uživatelé mohou vidět odkazy v code. Přihlaste se nebo zaregistrujte ZDARMA.

No Pass


12 črc 2015, 07:41
Profil
Colonel 4 th class
Colonel 4 th class

Registrován: 30 pro 2007, 17:16
Příspěvky: 513
Příspěvek Re: Horizont události / Event Horizon (1997)

Horizont události / Event Horizon (1997)

Video: BluRay 1080p
Audio: CZ AC-3 5.1ch, EN DTS 5.1ch
Titulky: CZ, SK, EN


Re: Horizont události / Event Horizon (1997)

CSFD / IMDB
Jen registrovaní uživatelé mohou vidět odkazy v code. Přihlaste se nebo zaregistrujte ZDARMA.


INFO
Jen registrovaní uživatelé mohou vidět odkazy v code. Přihlaste se nebo zaregistrujte ZDARMA.


FASTSHARE

Jen registrovaní uživatelé mohou vidět odkazy v code. Přihlaste se nebo zaregistrujte ZDARMA.


Jen registrovaní uživatelé mohou vidět odkazy v code. Přihlaste se nebo zaregistrujte ZDARMA.


Bez hesla. Balené bez kompresie. Pridaný záznam pre opravu dát 5%.


04 srp 2020, 14:38
Profil
Zobrazit příspěvky za předchozí:  Seřadit podle  
Odeslat nové téma Odpovědět na téma  [ Příspěvků: 4 ] 

Všechny časy jsou v UTC + 1 hodina


Nemůžete zakládat nová témata v tomto fóru
Nemůžete odpovídat v tomto fóru
Nemůžete upravovat své příspěvky v tomto fóru
Nemůžete mazat své příspěvky v tomto fóru
Nemůžete přikládat soubory v tomto fóru









StahovaniZaSMS Pizza Modena MP3 free download