fastshare
Batman a Robin / Batman & Robin (1997)
Vypnout statistiky
KATEGORIEPOSLEDNÍ PŘÍSPĚVKYPOSLEDNÍ OZNÁMENÍSTATISTIKY UŽIVATELE
Nick: Anonymous
Příspěvků: 3354
Hodnost: Warman
Varování: 0
---
Právě je 16 úno 2019, 06:37





Všechny časy jsou v UTC + 1 hodina


Pravidla fóra







Odeslat nové téma Odpovědět na téma  [ Příspěvků: 4 ] 
 Batman a Robin / Batman & Robin (1997) 
Autor Zpráva
Major
Major

Registrován: 24 čer 2011, 04:19
Příspěvky: 342
Příspěvek Batman a Robin / Batman & Robin (1997)

Batman a Robin / CZ, EN

Batman.and.Robin.1997.720p.BluRay.x264-ESiR.cz

Batman a Robin / Batman & Robin (1997)

Jen registrovaní uživatelé mohou vidět odkazy v code. Přihlaste se nebo zaregistrujte ZDARMA.


Napětí a strach: Přikryje Gotham City věčný příkrov ledu? George Clooney bojuje jako černý rytíř Batman proti nejhroznějšímu nebezpečí: ledový Mr. Freeze (Arnold Schwarzenegger) a jedovatá Poison Ivy (Uma Thurman) ohrožují město. Batman však musí ochránit více než jen Gotham City - mladická zanícenost kamaráda Robina (Chris O'Donnell) bojujícího se zločinem a krásná Batgirl (Alicia Silverstone) jej často vystavují nebezpečí

Jen registrovaní uživatelé mohou vidět odkazy v code. Přihlaste se nebo zaregistrujte ZDARMA.


DELETED


Naposledy upravil ladan dne 24 pro 2018, 23:10, celkově upraveno 1
Smazány nefunkční odkazy


22 zář 2011, 23:16
Profil
Colonel 5 th class
Colonel 5 th class

Registrován: 30 dub 2009, 10:11
Příspěvky: 644
Příspěvek Batman a Robin / Batman & Robin (1997)

Batman a Robin / Batman & Robin (1997)

Batman.and.Robin.1997.1080p.BluRay.DTS.x264


Batman a Robin

USA Batman & Robin
SK Batman a Robin

Akční / Krimi / Fantasy

USA / Velká Británie, 1997, 125 min
Režie: Joel Schumacher
Scénář: Akiva Goldsman
Kamera: Stephen Goldblatt
Hudba: Elliot Goldenthal

Hrají:
Arnold Schwarzenegger, George Clooney, Chris O'Donnell, Uma Thurman, Alicia Silverstone, Michael Gough, Pat Hingle, John Glover, Elle Macpherson, Vivica A. Fox, John Fink, Michael Paul Chan, Kimberly Scott, Harry Van Gorkum, Jim McMullan, Jesse Ventura, Ralf Moeller, Doug Hutchison, Coolio, Nicky Katt, John Ingle, Michael Bernardo

Jen registrovaní uživatelé mohou vidět odkazy v code. Přihlaste se nebo zaregistrujte ZDARMA.


Napětí a strach: Přikryje Gotham City věčný příkrov ledu? George Clooney bojuje jako černý rytíř Batman proti nejhroznějšímu nebezpečí: ledový Mr. Freeze (Arnold Schwarzenegger) a jedovatá Poison Ivy (Uma Thurman) ohrožují město. Batman však musí ochránit více než jen Gotham City - mladická zanícenost kamaráda Robina (Chris O'Donnell) bojujícího se zločinem a krásná Batgirl (Alicia Silverstone) jej často vystavují nebezpečí.

MediaInfo:
12,2 GiB
Jen registrovaní uživatelé mohou vidět odkazy v code. Přihlaste se nebo zaregistrujte ZDARMA.


DELETED


Naposledy upravil ladan dne 24 pro 2018, 23:15, celkově upraveno 1
Smazány nefunkční odkazy


11 črc 2013, 08:53
Profil
Warman
Warman
Uživatelský avatar

Registrován: 25 lis 2008, 11:02
Příspěvky: 6583
Příspěvek Re: Batman a Robin / Batman & Robin (1997)

Batman a Robin / Batman & Robin (1997)

Jazyk : CZ 2.0 AC3 / EN 5.1 DTS
Titulky : CZ / EN


Batman.And.Robin.1997.1080p.BluRay.x264.DTS-FGT

Re: Batman a Robin / Batman & Robin (1997)
CSFD
Jen registrovaní uživatelé mohou vidět odkazy v code. Přihlaste se nebo zaregistrujte ZDARMA.

MediaInfo
13.6 GiB
Jen registrovaní uživatelé mohou vidět odkazy v code. Přihlaste se nebo zaregistrujte ZDARMA.

DELETED


Naposledy upravil ladan dne 24 pro 2018, 23:17, celkově upraveno 1
Smazány nefunkční odkazy


22 lis 2016, 15:01
Profil
Colonel 2 nd class
Colonel 2 nd class

Registrován: 30 pro 2007, 17:16
Příspěvky: 410
Příspěvek Re: Batman a Robin / Batman & Robin (1997)

Batman a Robin / Batman & Robin (1997)

Video/Zdroj: BluRay 1080p
Audio: CZ AC-3 2ch, EN DTS 5.1ch, EN commentary Vorbis 2ch
Titulky: EN, DA, FI, FR, DE, IT, NL, NO, PT, ES, SV


Re: Batman a Robin / Batman & Robin (1997)

CSFD / IMDB
Jen registrovaní uživatelé mohou vidět odkazy v code. Přihlaste se nebo zaregistrujte ZDARMA.


INFO
Citace:
Format : Matroska
Format version : Version 4 / Version 2
File size : 12.2 GiB
Duration : 2h 4mn
Overall bit rate mode : Variable
Overall bit rate : 14.0 Mbps

Video
Format : AVC
Format profile : [email protected]
Duration : 2h 4mn
Bit rate : 11.9 Mbps
Width : 1 920 pixels
Height : 1 080 pixels
Display aspect ratio : 16:9
Frame rate mode : Constant
Frame rate : 23.976 fps
Color space : YUV
Chroma subsampling : 4:2:0
Bit depth : 8 bits
Scan type : Progressive
Bits/(Pixel*Frame) : 0.238
Stream size : 10.3 GiB (85%)

Audio #1
Format : AC-3
Duration : 2h 4mn
Bit rate mode : Constant
Bit rate : 192 Kbps
Channel(s) : 2 channels
Channel positions : Front: L R
Sampling rate : 48.0 KHz
Frame rate : 31.250 fps (1536 spf)
Compression mode : Lossy
Delay relative to video : 3s 200ms
Stream size : 172 MiB (1%)
Language : Czech

Audio #2
Format : DTS
Duration : 2h 4mn
Bit rate mode : Constant
Bit rate : 1 510 Kbps
Channel(s) : 6 channels
Channel positions : Front: L C R, Side: L R, LFE
Sampling rate : 48.0 KHz
Frame rate : 93.750 fps (512 spf)
Bit depth : 24 bits
Compression mode : Lossy
Stream size : 1.32 GiB (11%)
Language : English

Audio #3
Format : Vorbis
Duration : 2h 4mn
Bit rate mode : Variable
Bit rate : 80.0 Kbps
Channel(s) : 2 channels
Sampling rate : 48.0 KHz
Compression mode : Lossy
Stream size : 71.5 MiB (1%)
Title : Commentary
Language : English

Audio #4
Format : Vorbis
Duration : 2h 4mn
Bit rate mode : Variable
Bit rate : 64.0 Kbps
Channel(s) : 2 channels
Sampling rate : 48.0 KHz
Compression mode : Lossy
Stream size : 57.2 MiB (0%)
Title : Commentary Track
Language : English

Text #1
Format : ASS
Language : English
Default : No
Forced : No

Text #2
Format : ASS
Language : Danish
Default : No
Forced : No

Text #3
Format : ASS
Language : Finnish
Default : No
Forced : No

Text #4
Format : ASS
Language : French
Default : No
Forced : No

Text #5
Format : ASS
Language : German
Default : No
Forced : No

Text #6
Format : ASS
Language : Italian
Default : No
Forced : No

Text #7
Format : ASS
Language : Dutch
Default : No
Forced : No

Text #8
Format : ASS
Language : Norwegian
Default : No
Forced : No

Text #9
Format : ASS
Language : Portuguese
Default : No
Forced : No

Text #10
Format : ASS
Language : Spanish
Default : No
Forced : No

Text #11
Format : ASS
Language : Swedish
Default : No
Forced : No


FASTSHARE

Jen registrovaní uživatelé mohou vidět odkazy v code. Přihlaste se nebo zaregistrujte ZDARMA.


02 led 2019, 13:55
Profil
Zobrazit příspěvky za předchozí:  Seřadit podle  
Odeslat nové téma Odpovědět na téma  [ Příspěvků: 4 ] 

Všechny časy jsou v UTC + 1 hodina


Nemůžete zakládat nová témata v tomto fóru
Nemůžete odpovídat v tomto fóru
Nemůžete upravovat své příspěvky v tomto fóru
Nemůžete mazat své příspěvky v tomto fóru
Nemůžete přikládat soubory v tomto fóru









StahovaniZaSMS Pizza Modena MP3 free download