fastshare
Velký Gatsby / Great Gatsby, The (2013)
Vypnout statistiky
KATEGORIEPOSLEDNÍ PŘÍSPĚVKYPOSLEDNÍ OZNÁMENÍSTATISTIKY UŽIVATELE
Nick: Anonymous
Příspěvků: 3361
Hodnost: Warman
Varování: 0
---
Právě je 18 zář 2018, 18:32





Všechny časy jsou v UTC + 1 hodina


Pravidla fóra







Odeslat nové téma Odpovědět na téma  [ Příspěvků: 12 ] 
 Velký Gatsby / Great Gatsby, The (2013) 
Autor Zpráva
Colonel 5 th class
Colonel 5 th class

Registrován: 05 úno 2013, 19:06
Příspěvky: 718
Příspěvek Re: Velký Gatsby / Great Gatsby, The (2013)

The.Great.Gatsby.2013.1080p.BluRay.x264.CZ


Re: Velký Gatsby / Great Gatsby, The (2013)


Format : Matroska
Format version : Version 4 / Version 2
File size : 12.0 GiB
Duration : 2h 22mn
Overall bit rate : 12.1 Mbps
Encoded date : UTC 2013-09-06 12:58:22
Writing application : mkvmerge v6.0.0 ('Coming Up For Air') built on Jan 20 2013 09:52:00
Writing library : libebml v1.3.0 + libmatroska v1.4.0

Video
ID : 1
Format : AVC
Format/Info : Advanced Video Codec
Format profile : [email protected]
Format settings, CABAC : Yes
Format settings, ReFrames : 5 frames
Codec ID : V_MPEG4/ISO/AVC
Duration : 2h 22mn
Bit rate : 10.2 Mbps
Width : 1 920 pixels
Height : 800 pixels
Display aspect ratio : 2.40:1
Frame rate : 23.976 fps
Color space : YUV
Chroma subsampling : 4:2:0
Bit depth : 8 bits
Scan type : Progressive
Bits/(Pixel*Frame) : 0.277
Stream size : 9.81 GiB (82%)
Writing library : x264 core 130 r2273 b3065e6
Encoding settings : cabac=1 / ref=5 / deblock=1:0:0 / analyse=0x3:0x113 / me=umh / subme=8 / psy=1 / psy_rd=1.00:0.00 / mixed_ref=1 / me_range=16 / chroma_me=1 / trellis=1 / 8x8dct=1 / cqm=0 / deadzone=21,11 / fast_pskip=1 / chroma_qp_offset=-2 / threads=64 / lookahead_threads=6 / sliced_threads=0 / nr=0 / decimate=1 / interlaced=0 / bluray_compat=0 / constrained_intra=0 / bframes=3 / b_pyramid=2 / b_adapt=1 / b_bias=0 / direct=3 / weightb=1 / open_gop=0 / weightp=2 / keyint=240 / keyint_min=23 / scenecut=40 / intra_refresh=0 / rc_lookahead=50 / rc=abr / mbtree=1 / bitrate=10200 / ratetol=1.0 / qcomp=0.60 / qpmin=0 / qpmax=69 / qpstep=4 / ip_ratio=1.40 / aq=1:1.00
Language : English

Audio #1
ID : 2
Format : AC-3
Format/Info : Audio Coding 3
Mode extension : CM (complete main)
Codec ID : A_AC3
Duration : 2h 22mn
Bit rate mode : Constant
Bit rate : 448 Kbps
Channel(s) : 6 channels
Channel positions : Front: L C R, Side: L R, LFE
Sampling rate : 48.0 KHz
Bit depth : 16 bits
Compression mode : Lossy
Stream size : 455 MiB (4%)
Language : Czech

Audio #2
ID : 3
Format : DTS
Format/Info : Digital Theater Systems
Codec ID : A_DTS
Duration : 2h 22mn
Bit rate mode : Constant
Bit rate : 1 510 Kbps
Channel(s) : 6 channels
Channel positions : Front: L C R, Side: L R, LFE
Sampling rate : 48.0 KHz
Bit depth : 24 bits
Compression mode : Lossy
Stream size : 1.50 GiB (12%)
Language : English

Text #1
ID : 4
Format : PGS
Muxing mode : zlib
Codec ID : S_HDMV/PGS
Codec ID/Info : The same subtitle format used on BDs/HD-DVDs
Title : forced
Language : Czech

Text #2
ID : 5
Format : PGS
Muxing mode : zlib
Codec ID : S_HDMV/PGS
Codec ID/Info : The same subtitle format used on BDs/HD-DVDs
Title : full
Language : Czech

Text #3
ID : 6
Format : UTF-8
Codec ID : S_TEXT/UTF8
Codec ID/Info : UTF-8 Plain Text
Title : Eng
Language : English


Jen registrovaní uživatelé mohou vidět odkazy v code. Přihlaste se nebo zaregistrujte ZDARMA.



Jen registrovaní uživatelé mohou vidět odkazy v code. Přihlaste se nebo zaregistrujte ZDARMA.


pridany 5% zaznam na opravu dat, neziadajte o reupload, subory nezalohujem!


07 zář 2013, 02:14
Profil
Sergeant
Sergeant
Uživatelský avatar

Registrován: 22 čer 2009, 18:45
Příspěvky: 113
Příspěvek Re: Velký Gatsby / Great Gatsby, The (2013)

The.Great.Gatsby.2013.1080p.BluRay.DTS.x264-NTb.CZ-LB23

Re: Velký Gatsby / Great Gatsby, The (2013)

Jen registrovaní uživatelé mohou vidět odkazy v code. Přihlaste se nebo zaregistrujte ZDARMA.


Jen registrovaní uživatelé mohou vidět odkazy v code. Přihlaste se nebo zaregistrujte ZDARMA.


SAMPLE

Jen registrovaní uživatelé mohou vidět odkazy v code. Přihlaste se nebo zaregistrujte ZDARMA.


Jen registrovaní uživatelé mohou vidět odkazy v code. Přihlaste se nebo zaregistrujte ZDARMA.


Jen registrovaní uživatelé mohou vidět odkazy v code. Přihlaste se nebo zaregistrujte ZDARMA.


HESLO

Jen registrovaní uživatelé mohou vidět odkazy v code. Přihlaste se nebo zaregistrujte ZDARMA.


07 zář 2013, 08:30
Profil
Colonel 5 th class
Colonel 5 th class

Registrován: 03 čer 2009, 10:50
Příspěvky: 705
Příspěvek Re: Velký Gatsby / Great Gatsby, The (2013)

Velký Gatsby / Great Gatsby, The (2013)

Jen registrovaní uživatelé mohou vidět odkazy v code. Přihlaste se nebo zaregistrujte ZDARMA.



Rel
The.Great.Gatsby.2013.1080p.BluRay.x264.CZ


MEDIA
Jen registrovaní uživatelé mohou vidět odkazy v code. Přihlaste se nebo zaregistrujte ZDARMA.



DL
Jen registrovaní uživatelé mohou vidět odkazy v code. Přihlaste se nebo zaregistrujte ZDARMA.



Jen registrovaní uživatelé mohou vidět odkazy v code. Přihlaste se nebo zaregistrujte ZDARMA.



Jen registrovaní uživatelé mohou vidět odkazy v code. Přihlaste se nebo zaregistrujte ZDARMA.



Jen registrovaní uživatelé mohou vidět odkazy v code. Přihlaste se nebo zaregistrujte ZDARMA.



Linky su kombinovatelne
Pridany recovery record rar


07 zář 2013, 12:50
Profil
Colonel 2 nd class
Colonel 2 nd class

Registrován: 23 kvě 2009, 14:44
Příspěvky: 419
Příspěvek Re: Velký Gatsby / Great Gatsby, The (2013)

Velký Gatsby / Great Gatsby, The (2013)

Release: The.Great.Gatsby.2013.FRENCH.720p.BluRay.x264-ROUGH.CZ

Re: Velký Gatsby / Great Gatsby, The (2013)

Jen registrovaní uživatelé mohou vidět odkazy v code. Přihlaste se nebo zaregistrujte ZDARMA.


Audio: Czech,FRE,ENG
Titulky:CZ_Forced


Drama / Romantický
Austrálie / USA, 2013, 142 min


Jen registrovaní uživatelé mohou vidět odkazy v code. Přihlaste se nebo zaregistrujte ZDARMA.



Sample:

Jen registrovaní uživatelé mohou vidět odkazy v code. Přihlaste se nebo zaregistrujte ZDARMA.


Download:

Jen registrovaní uživatelé mohou vidět odkazy v code. Přihlaste se nebo zaregistrujte ZDARMA.



Jen registrovaní uživatelé mohou vidět odkazy v code. Přihlaste se nebo zaregistrujte ZDARMA.


Jen registrovaní uživatelé mohou vidět odkazy v code. Přihlaste se nebo zaregistrujte ZDARMA.


Jen registrovaní uživatelé mohou vidět odkazy v code. Přihlaste se nebo zaregistrujte ZDARMA.



**************************************************************************************************************

Release: The.Great.Gatsby.2013.MULTi.1080p.BluRay.x264-ROUGH.CZ

http://i60.fastpic.ru/big/2013/0909/d9/61e80221fdf6afe7fddab1eab7eea2d9.png

Audio: CZECH,ENG,FRE
Titulky:CZ_Forced



Jen registrovaní uživatelé mohou vidět odkazy v code. Přihlaste se nebo zaregistrujte ZDARMA.



Sample:

Jen registrovaní uživatelé mohou vidět odkazy v code. Přihlaste se nebo zaregistrujte ZDARMA.


Download:

Jen registrovaní uživatelé mohou vidět odkazy v code. Přihlaste se nebo zaregistrujte ZDARMA.



Jen registrovaní uživatelé mohou vidět odkazy v code. Přihlaste se nebo zaregistrujte ZDARMA.


Jen registrovaní uživatelé mohou vidět odkazy v code. Přihlaste se nebo zaregistrujte ZDARMA.


Jen registrovaní uživatelé mohou vidět odkazy v code. Přihlaste se nebo zaregistrujte ZDARMA.



Bez hesla,balené vo winrare,linky sa daju kombinovat,pridany
zaznam na opravu dat


09 zář 2013, 16:41
Profil
Master Sergant
Master Sergant

Registrován: 23 čer 2010, 21:59
Příspěvky: 145
Příspěvek Re: Velký Gatsby / Great Gatsby, The (2013)

Velký Gatsby / Great Gatsby, The (2013)
The.Great.Gatsby.2013.1080p.BluRay.x264.CZ

audio: CZ, EN
titulky: CZ, CZ forced, EN


Re: Velký Gatsby / Great Gatsby, The (2013)

Info
Jen registrovaní uživatelé mohou vidět odkazy v code. Přihlaste se nebo zaregistrujte ZDARMA.

Jen registrovaní uživatelé mohou vidět odkazy v code. Přihlaste se nebo zaregistrujte ZDARMA.

Hellshare.cz
Jen registrovaní uživatelé mohou vidět odkazy v code. Přihlaste se nebo zaregistrujte ZDARMA.

Czshare.cz
Jen registrovaní uživatelé mohou vidět odkazy v code. Přihlaste se nebo zaregistrujte ZDARMA.

Fastshare.cz
Jen registrovaní uživatelé mohou vidět odkazy v code. Přihlaste se nebo zaregistrujte ZDARMA.


Bez hesla, 2gb party, kombinovatelné, 5% záznam pro opravu dat


11 zář 2013, 12:04
Profil
Master Sergant
Master Sergant

Registrován: 22 črc 2011, 14:56
Příspěvky: 129
Příspěvek Re: Velký Gatsby / Great Gatsby, The (2013)

Re: Velký Gatsby / Great Gatsby, The (2013)
Velký Gatsby / The Great Gatsby (2013) CZ

Re: Velký Gatsby / Great Gatsby, The (2013)
Re: Velký Gatsby / Great Gatsby, The (2013)

Re: Velký Gatsby / Great Gatsby, The (2013)
Jen registrovaní uživatelé mohou vidět odkazy v code. Přihlaste se nebo zaregistrujte ZDARMA.


Re: Velký Gatsby / Great Gatsby, The (2013)

Drama / Romantický
Austrálie / USA, 2013, 142 min

Režie: Baz Luhrmann
Předloha: F. Scott Fitzgerald (kniha)
Scénář: Baz Luhrmann, Craig Pearce
Kamera: Simon Duggan
Hudba: Craig Armstrong
Hrají: Leonardo DiCaprio, Carey Mulligan, Tobey Maguire, Joel Edgerton, Isla Fisher, Jason Clarke, Elizabeth Debicki, Gemma Ward, Callan McAuliffe, Amitabh Bachchan, Jack Thompson, Jacek Koman, Vince Colosimo, Goran D. Kleut, Heather Mitchell, Charlize Skinner, Adelaide Clemens, Richard Carter

Obsah
Velký Gatsby sleduje příběh Nicka Carrawaye, který opustí středozápad a na jaře roku 1922 se vydává do New Yorku, města ztělesňujícího uvolňující se morálku a populární jazz. Carraway hledá svou vlastní verzi amerického snu a usadí se nedaleko domu záhadného a časté večírky pořádajícího Jaye Gatsbyho a také kousek od své sestřenice Daisy a jejího záletného manžela s modrou krví Toma Buchanana. Nick se postupně stane součástí světa mimořádně bohatých lidí, jejich iluzí, lásek a zklamání. Nick jako svědek tohoto světa píše příběh nemožné lásky, věčných snů…



Re: Velký Gatsby / Great Gatsby, The (2013)
The.Great.Gatsby.2013.1080p.BluRay.x264.CZ
2D HD 1080p!


AUDIO: CZ, EN
TITULKY: CZ, EN


Celková veľkosť: 12 GB


MediaInfo:
Jen registrovaní uživatelé mohou vidět odkazy v code. Přihlaste se nebo zaregistrujte ZDARMA.



Re: Velký Gatsby / Great Gatsby, The (2013)
Celkova velkost = 12 GB

LEN 1 LINK!

Re: Velký Gatsby / Great Gatsby, The (2013)
Jen registrovaní uživatelé mohou vidět odkazy v code. Přihlaste se nebo zaregistrujte ZDARMA.


alebo 2 GB LINKY (linky sa daju kombinovat)

Re: Velký Gatsby / Great Gatsby, The (2013)
Jen registrovaní uživatelé mohou vidět odkazy v code. Přihlaste se nebo zaregistrujte ZDARMA.


Re: Velký Gatsby / Great Gatsby, The (2013)
Jen registrovaní uživatelé mohou vidět odkazy v code. Přihlaste se nebo zaregistrujte ZDARMA.


alebo 1 GB LINKY

Re: Velký Gatsby / Great Gatsby, The (2013)

Ponukam kredity na share-rapid.com! Viac info ss alebo e-mail.

Jen registrovaní uživatelé mohou vidět odkazy v code. Přihlaste se nebo zaregistrujte ZDARMA.




Re: Velký Gatsby / Great Gatsby, The (2013)


11 zář 2013, 20:00
Profil
Warrant
Warrant
Uživatelský avatar

Registrován: 08 črc 2013, 07:53
Příspěvky: 174
Bydliště: BA
Příspěvek Re: Velký Gatsby / Great Gatsby, The (2013)

Velký Gatsby / The Great Gatsby (2013) 1080p
Žáner: Drama / Romantický
Jazyk: 5.1 CZ, DTS 5.1 Anglicky
Titulky: CZ / CZ forced / EN
Hodnotenie CSFD: 74%
Hodnotenie IMDb: 7.3/10
Re: Velký Gatsby / Great Gatsby, The (2013)

__.__
MKV, 10,2Mbps, 1920*800, at 23.976 fps | audio AC3, 6CH, 448Kbps | 12.0GB |
Format: Matroska
Format version: Version 4 / Version 2
File size: 12.0 GiB
Duration: 2h 22mn
Overall bit rate: 12.1 Mbps
Encoded date: UTC 2013-09-06 12:58:22
Writing application: mkvmerge v6.0.0 ('Coming Up For Air';) built on Jan 20 2013 09:52:00
Writing library: libebml v1.3.0 + libmatroska v1.4.0

Video
ID: 1
Format: AVC
Format/Info: Advanced Video Codec
Format profile: [email protected]
Format settings, CABAC: Yes
Format settings, ReFrames: 5 frames
Codec ID: V_MPEG4/ISO/AVC
Duration: 2h 22mn
Bit rate: 10.2 Mbps
Width: 1 920 pixels
Height: 800 pixels
Display aspect ratio: 2.40:1
Frame rate mode: Constant
Frame rate: 23.976 fps
Color space: YUV
Chroma subsampling: 4:2:0
Bit depth: 8 bits
Scan type: Progressive
Bits/(Pixel*Frame): 0.277
Stream size: 9.81 GiB (82%)
Writing library: x264 core 130 r2273 b3065e6
Language: English
Default: Yes
Forced: No

Audio #1
ID: 2
Format: AC-3
Format/Info: Audio Coding 3
Mode extension: CM (complete main)
Format settings, Endianness: Big
Codec ID: A_AC3
Duration: 2h 22mn
Bit rate mode: Constant
Bit rate: 448 Kbps
Channel(s): 6 channels
Channel positions: Front: L C R, Side: L R, LFE
Sampling rate: 48.0 KHz
Bit depth: 16 bits
Compression mode: Lossy
Stream size: 455 MiB (4%)
Language: Czech
Default: Yes
Forced: No

Audio #2
ID: 3
Format: DTS
Format/Info: Digital Theater Systems
Mode: 16
Format settings, Endianness: Big
Codec ID: A_DTS
Duration: 2h 22mn
Bit rate mode: Constant
Bit rate: 1 509 Kbps
Channel(s): 6 channels
Channel positions: Front: L C R, Side: L R, LFE
Sampling rate: 48.0 KHz
Bit depth: 24 bits
Compression mode: Lossy
Stream size: 1.50 GiB (12%)
Language: English
Default: No
Forced: No
:-_-:
Jen registrovaní uživatelé mohou vidět odkazy v code. Přihlaste se nebo zaregistrujte ZDARMA.

Re: Velký Gatsby / Great Gatsby, The (2013)
Jen registrovaní uživatelé mohou vidět odkazy v code. Přihlaste se nebo zaregistrujte ZDARMA.

Re: Velký Gatsby / Great Gatsby, The (2013)
Jen registrovaní uživatelé mohou vidět odkazy v code. Přihlaste se nebo zaregistrujte ZDARMA.


06 pro 2013, 19:35
Profil
Warrant
Warrant
Uživatelský avatar

Registrován: 08 črc 2013, 07:53
Příspěvky: 174
Bydliště: BA
Příspěvek Re: Velký Gatsby / Great Gatsby, The (2013)

== Obnova linkov hellshare, fastshare
http://warcenter.cz/viewtopic.php?f=89&t=1464789&p=2959586#p2959586


27 bře 2014, 12:53
Profil
Warman
Warman
Uživatelský avatar

Registrován: 25 lis 2008, 11:02
Příspěvky: 6583
Příspěvek Re: Velký Gatsby / Great Gatsby, The (2013)

Velký Gatsby / Great Gatsby, The (2013)

Jazyk : CZ 5.1 AC3 / EN 5.1 DTS
Titulky : CZ / EN


The.Great.Gatsby.2013.1080p.BluRay.x264.CZ
Re: Velký Gatsby / Great Gatsby, The (2013)
CSFD
Jen registrovaní uživatelé mohou vidět odkazy v code. Přihlaste se nebo zaregistrujte ZDARMA.

MediaInfo
Jen registrovaní uživatelé mohou vidět odkazy v code. Přihlaste se nebo zaregistrujte ZDARMA.

Euroshare
Jen registrovaní uživatelé mohou vidět odkazy v code. Přihlaste se nebo zaregistrujte ZDARMA.

No Pass


20 črc 2015, 15:40
Profil
Warman
Warman
Uživatelský avatar

Registrován: 22 srp 2011, 22:06
Příspěvky: 1012
Příspěvek Velký Gatsby / Great Gatsby, The (2013)

Velký Gatsby / Great Gatsby, The (2013)

Velký Gatsby / The Great Gatsby (2013)

Zdroj:
The Great Gatsby (2013) Blu-ray CEE 1080p AVC DD5.1


Velký Gatsby / Great Gatsby, The (2013)

AUDIO INFO:
Czech 448 Kbps 5.1 Dolby Digital, English 2183 Kbps 5.1 DTS-HD MASTER
English 640 Kbps 5.1 Dolby Digital


TITULKY INFO:
Czech Forced, Full (VobSub), Czech Forced, Full (UTF-8)
English SDH (UTF-8)


Velký Gatsby / Great Gatsby, The (2013)

Drama / Romantický
Austrálie / USA, 2013, 142 min
Režie: Baz Luhrmann
Předloha: F. Scott Fitzgerald (kniha)
Scénář: Baz Luhrmann, Craig Pearce
Kamera: Simon Duggan
Hudba: Craig Armstrong
Hrají: Leonardo DiCaprio, Carey Mulligan, Tobey Maguire, Joel Edgerton, Isla Fisher, Jason Clarke, Elizabeth Debicki, Gemma Ward, Callan McAuliffe, Amitabh Bachchan, Jack Thompson, Jacek Koman, Vince Colosimo, Goran D. Kleut, Heather Mitchell, Charlize Skinner, Adelaide Clemens, Richard Carter, Kate Mulvany a další.

Obsah:
Velký Gatsby sleduje příběh Nicka Carrawaye, který opustí středozápad a na jaře roku 1922 se vydává do New Yorku, města ztělesňujícího uvolňující se morálku a populární jazz. Carraway hledá svou vlastní verzi amerického snu a usadí se nedaleko domu záhadného a časté večírky pořádajícího Jaye Gatsbyho a také kousek od své sestřenice Daisy a jejího záletného manžela s modrou krví Toma Buchanana. Nick se postupně stane součástí světa mimořádně bohatých lidí, jejich iluzí, lásek a zklamání. Nick jako svědek tohoto světa píše příběh nemožné lásky, věčných snů a automobilové tragédie, a nastavuje zrcadlo moderní době a jejím soubojům.

Scénárista, producent a režisér Baz Luhrmann s pomocí své mimořádné představivosti znovu převedl na filmové plátno román F. Scotta Fitzgeralda "Velký Gatsby". Luhrmann nabízí svoji vlastní vizuální interpretaci klasického příběhu a oživuje děj příběhu dosud nevídaným způsobem. Hlavní roli v jeho filmu ztvárnil Leonardo DiCaprio.


Velký Gatsby / Great Gatsby, The (2013)
Jen registrovaní uživatelé mohou vidět odkazy v code. Přihlaste se nebo zaregistrujte ZDARMA.


Velký Gatsby / Great Gatsby, The (2013)
Jen registrovaní uživatelé mohou vidět odkazy v code. Přihlaste se nebo zaregistrujte ZDARMA.


Velký Gatsby / Great Gatsby, The (2013)
Jen registrovaní uživatelé mohou vidět odkazy v code. Přihlaste se nebo zaregistrujte ZDARMA.


Velký Gatsby / Great Gatsby, The (2013)
HESLO!!!
Jen registrovaní uživatelé mohou vidět odkazy v code. Přihlaste se nebo zaregistrujte ZDARMA.

Přidán záznam na opravu dat 20%.
Archív hlasí chybu crc, tak je potřeba oprava ve Winraru.


12 zář 2015, 17:50
Profil
Major
Major

Registrován: 30 pro 2007, 17:16
Příspěvky: 337
Příspěvek Re: Velký Gatsby / Great Gatsby, The (2013)

Velký Gatsby / The Great Gatsby (2013)
BluRay 1080p
Audio: CZ AC-3 5.1, EN DTS 5.1
Subtitles: CZ, EN

Re: Velký Gatsby / Great Gatsby, The (2013)

Jen registrovaní uživatelé mohou vidět odkazy v code. Přihlaste se nebo zaregistrujte ZDARMA.


Jen registrovaní uživatelé mohou vidět odkazy v code. Přihlaste se nebo zaregistrujte ZDARMA.


Fastshare
Jen registrovaní uživatelé mohou vidět odkazy v code. Přihlaste se nebo zaregistrujte ZDARMA.


Balené bez kompresie. Bez hesla. Pridaný záznam pre opravu dát 5%.


14 bře 2016, 19:03
Profil
Major
Major

Registrován: 09 bře 2009, 18:27
Příspěvky: 340
Příspěvek Re: Velký Gatsby / Great Gatsby, The (2013)

The.Great.Gatsby.2013.1080p.BluRay.x264.SK.CZ.ENG




Cover:

Re: Velký Gatsby / Great Gatsby, The (2013)

Info:

Jazyk: Slovenský, Český, Anglický
Titulky: Český, Anglický


Csfd:
Jen registrovaní uživatelé mohou vidět odkazy v code. Přihlaste se nebo zaregistrujte ZDARMA.

Info:
Jen registrovaní uživatelé mohou vidět odkazy v code. Přihlaste se nebo zaregistrujte ZDARMA.




Download:
Jen registrovaní uživatelé mohou vidět odkazy v code. Přihlaste se nebo zaregistrujte ZDARMA.


05 črc 2018, 13:38
Profil
Zobrazit příspěvky za předchozí:  Seřadit podle  
Odeslat nové téma Odpovědět na téma  [ Příspěvků: 12 ] 

Všechny časy jsou v UTC + 1 hodina


Nemůžete zakládat nová témata v tomto fóru
Nemůžete odpovídat v tomto fóru
Nemůžete upravovat své příspěvky v tomto fóru
Nemůžete mazat své příspěvky v tomto fóru
Nemůžete přikládat soubory v tomto fóru









StahovaniZaSMS Pizza Modena MP3 free download