fastshare
Riddick (2013)
Vypnout statistiky
KATEGORIEPOSLEDNÍ PŘÍSPĚVKYPOSLEDNÍ OZNÁMENÍSTATISTIKY UŽIVATELE
Nick: Anonymous
Příspěvků: 3361
Hodnost: Warman
Varování: 0
---
Právě je 13 lis 2018, 06:35





Všechny časy jsou v UTC + 1 hodina


Pravidla fóra







Odeslat nové téma Odpovědět na téma  [ Příspěvků: 17 ]  Přejít na stránku Předchozí  1, 2
 Riddick (2013) 
Autor Zpráva
Colonel
Colonel

Registrován: 30 pro 2007, 17:16
Příspěvky: 357
Příspěvek Re: Riddick (2013)

Riddick (2013)
Video/Zdroj: BluRay 1080p
Audio: CZ AC-3 5.1ch, EN DTS 5.1ch

Re: Riddick (2013)

Jen registrovaní uživatelé mohou vidět odkazy v code. Přihlaste se nebo zaregistrujte ZDARMA.


Citace:
Format : Matroska
Format version : Version 4 / Version 2
File size : 13.2 GiB
Duration : 1h 58mn
Overall bit rate : 15.9 Mbps

Video
Format : AVC
Format profile : [email protected]
Duration : 1h 58mn
Bit rate : 14.0 Mbps
Width : 1 920 pixels
Height : 800 pixels
Display aspect ratio : 2.40:1
Frame rate mode : Constant
Frame rate : 23.976 fps
Color space : YUV
Chroma subsampling : 4:2:0
Bit depth : 8 bits
Scan type : Progressive
Bits/(Pixel*Frame) : 0.381
Stream size : 11.4 GiB (86%)

Audio #1
Format : DTS
Duration : 1h 58mn
Bit rate mode : Constant
Bit rate : 1 509 Kbps
Channel(s) : 6 channels
Channel positions : Front: L C R, Side: L R, LFE
Sampling rate : 48.0 KHz
Bit depth : 24 bits
Compression mode : Lossy
Stream size : 1.25 GiB (9%)
Title : DTS 5.1 1510Kbps
Language : English
Default : Yes
Forced : No

Audio #2
Format : AC-3
Duration : 1h 58mn
Bit rate mode : Constant
Bit rate : 384 Kbps
Channel(s) : 6 channels
Channel positions : Front: L C R, Side: L R, LFE
Sampling rate : 48.0 KHz
Bit depth : 16 bits
Compression mode : Lossy
Stream size : 327 MiB (2%)
Title : DD 5.1 384Kbps
Language : Czech
Default : No
Forced : No


Fastshare
Jen registrovaní uživatelé mohou vidět odkazy v code. Přihlaste se nebo zaregistrujte ZDARMA.


Balené bez kompresie. Bez hesla. Pridaný záznam pre opravu dát 5%.


Naposledy upravil Sonty dne 20 črc 2018, 13:10, celkově upraveno 1

29 bře 2016, 21:32
Profil
Captain
Captain

Registrován: 19 bře 2008, 12:55
Příspěvky: 264
Příspěvek Re: Riddick (2013)

Riddick / 1080p / 2013
Re: Riddick (2013)
Jen registrovaní uživatelé mohou vidět odkazy v code. Přihlaste se nebo zaregistrujte ZDARMA.


Re: Riddick (2013)
Jen registrovaní uživatelé mohou vidět odkazy v code. Přihlaste se nebo zaregistrujte ZDARMA.

Re: Riddick (2013)
Jen registrovaní uživatelé mohou vidět odkazy v code. Přihlaste se nebo zaregistrujte ZDARMA.


12 lis 2017, 11:06
Profil
Zobrazit příspěvky za předchozí:  Seřadit podle  
Odeslat nové téma Odpovědět na téma  [ Příspěvků: 17 ]  Přejít na stránku Předchozí  1, 2

Všechny časy jsou v UTC + 1 hodina


Nemůžete zakládat nová témata v tomto fóru
Nemůžete odpovídat v tomto fóru
Nemůžete upravovat své příspěvky v tomto fóru
Nemůžete mazat své příspěvky v tomto fóru
Nemůžete přikládat soubory v tomto fóru









StahovaniZaSMS Pizza Modena MP3 free download