fastshare
Hodný dinosaurus / Good Dinosaur, The (2015)
Vypnout statistiky
KATEGORIEPOSLEDNÍ PŘÍSPĚVKYPOSLEDNÍ OZNÁMENÍSTATISTIKY UŽIVATELE
Nick: Anonymous
Příspěvků: 3379
Hodnost: Warman
Varování: 0
---
Právě je 21 dub 2018, 10:27





Všechny časy jsou v UTC + 1 hodina


Pravidla fóra







Odeslat nové téma Odpovědět na téma  [ Příspěvků: 13 ] 
 Hodný dinosaurus / Good Dinosaur, The (2015) 
Autor Zpráva
Warman
Warman

Registrován: 12 srp 2015, 10:50
Příspěvky: 2011
Příspěvek Hodný dinosaurus / Good Dinosaur, The (2015)

Hodný dinosaurus / Good Dinosaur, The (2015)

Jen registrovaní uživatelé mohou vidět odkazy v code. Přihlaste se nebo zaregistrujte ZDARMA.


Hodný dinosaurus / Good Dinosaur, The (2015)

The.Good.Dinosaur.2015.1080p.BluRay.x264-SPARKS
Jazyk: CZ AC3 2.0, EN DTS 5.1
Titulky: CZ, SK

MediaInfo
Jen registrovaní uživatelé mohou vidět odkazy v code. Přihlaste se nebo zaregistrujte ZDARMA.


Download
Jen registrovaní uživatelé mohou vidět odkazy v code. Přihlaste se nebo zaregistrujte ZDARMA.

Jen registrovaní uživatelé mohou vidět odkazy v code. Přihlaste se nebo zaregistrujte ZDARMA.

Jen registrovaní uživatelé mohou vidět odkazy v code. Přihlaste se nebo zaregistrujte ZDARMA.

Jen registrovaní uživatelé mohou vidět odkazy v code. Přihlaste se nebo zaregistrujte ZDARMA.

Jen registrovaní uživatelé mohou vidět odkazy v code. Přihlaste se nebo zaregistrujte ZDARMA.

Jen registrovaní uživatelé mohou vidět odkazy v code. Přihlaste se nebo zaregistrujte ZDARMA.

Jen registrovaní uživatelé mohou vidět odkazy v code. Přihlaste se nebo zaregistrujte ZDARMA.

Jen registrovaní uživatelé mohou vidět odkazy v code. Přihlaste se nebo zaregistrujte ZDARMA.


Jazyk: CZ AC3 2.0, EN DTS 7.1/5.1
Titulky: CZ, SK, EN

MediaInfo
Jen registrovaní uživatelé mohou vidět odkazy v code. Přihlaste se nebo zaregistrujte ZDARMA.


Download
Jen registrovaní uživatelé mohou vidět odkazy v code. Přihlaste se nebo zaregistrujte ZDARMA.

Jen registrovaní uživatelé mohou vidět odkazy v code. Přihlaste se nebo zaregistrujte ZDARMA.

Jen registrovaní uživatelé mohou vidět odkazy v code. Přihlaste se nebo zaregistrujte ZDARMA.

Jen registrovaní uživatelé mohou vidět odkazy v code. Přihlaste se nebo zaregistrujte ZDARMA.

Jen registrovaní uživatelé mohou vidět odkazy v code. Přihlaste se nebo zaregistrujte ZDARMA.

Jen registrovaní uživatelé mohou vidět odkazy v code. Přihlaste se nebo zaregistrujte ZDARMA.

Jen registrovaní uživatelé mohou vidět odkazy v code. Přihlaste se nebo zaregistrujte ZDARMA.

Jen registrovaní uživatelé mohou vidět odkazy v code. Přihlaste se nebo zaregistrujte ZDARMA.


17 bře 2016, 19:10
Profil
Warman
Warman
Uživatelský avatar

Registrován: 25 lis 2008, 11:02
Příspěvky: 6593
Příspěvek Re: Hodný dinosaurus / Good Dinosaur, The (2015)

Hodný dinosaurus / Good Dinosaur, The (2015)

Jazyk : CZ 2.0 AC3 / EN 5.1 DTS / EN 2.0 AC3 (Commentary by Peter Sohn director and Kelsey Mann)
Titulky : CZ / EN


The.Good.Dinosaur.2015.BluRay.1080p.DTS-HD.MA.7.1.x264-EPiC

Re: Hodný dinosaurus / Good Dinosaur, The (2015)
CSFD
Jen registrovaní uživatelé mohou vidět odkazy v code. Přihlaste se nebo zaregistrujte ZDARMA.

MediaInfo
Jen registrovaní uživatelé mohou vidět odkazy v code. Přihlaste se nebo zaregistrujte ZDARMA.

Jen registrovaní uživatelé mohou vidět odkazy v code. Přihlaste se nebo zaregistrujte ZDARMA.

Fastshare
Jen registrovaní uživatelé mohou vidět odkazy v code. Přihlaste se nebo zaregistrujte ZDARMA.

No Pass


22 bře 2016, 16:30
Profil
Private
Private

Registrován: 12 kvě 2009, 11:44
Příspěvky: 3
Příspěvek Re: Hodný dinosaurus / Good Dinosaur, The (2015)

Opet dalsi priklad kdy original pro CR ma DTS 5.1 CZ stopu, ale pri prevodu je (zamerne?) degradovana na DD 2.0, takze se dostava kvalitativne na uroven komentare. Proc???


25 bře 2016, 11:21
Profil
Private
Private

Registrován: 25 lis 2009, 20:42
Příspěvky: 9
Příspěvek Re: Hodný dinosaurus / Good Dinosaur, The (2015)

Je to jednoduché. Blu-ray v Čechách zatím nevyšel a tak si pár chytrých uplíků
zajde do kina a šup se zvukem k disku ze zahraničí, kde je dostupný už teď.
Chce to číst pořádně popis media a když tam uvidíš stereo a na netu najdeš, že
originál k filmu bude 5.1 stopa, tak to jednoduše nestahuj a čekej až to sem
dají znovu. Tohle dělají uplíci, co chtějí být za každou cenu první na netu a chtějí
za každou cenu kredity. Já jim to nezazlívám, chápu je. Ale naštve to, když si člověk
nevšimne a stáhne ten hnuj.


25 bře 2016, 18:33
Profil
Private
Private

Registrován: 18 bře 2012, 07:44
Příspěvky: 2
Příspěvek Re: Hodný dinosaurus / Good Dinosaur, The (2015)

Zvuk 2.0 pochází z WEB-DL ripů, ne z kina. Bohužel se s tím teď roztrhl pytel, ale co se dá dělat. Někdo je rád, že se na film může podívat před oficiálním vydáním Bluray. Stačí si ale pár týdnů počkat, většinou to někdo nahodí i v plné kvalitě.


25 bře 2016, 21:07
Profil
Private
Private

Registrován: 18 bře 2016, 23:22
Příspěvky: 13
Příspěvek Re: Hodný dinosaurus / Good Dinosaur, The (2015)

Hodný dinosaurus / The Good Dinosaur (2015) 720p-1080p BluRay CZ DTS/AC3 5.1 x264 - HDChina
Animovaný, Rodinný, Komedie | USA | 2015 | 101 min


Re: Hodný dinosaurus / Good Dinosaur, The (2015)

... ČSFD 66%
Jen registrovaní uživatelé mohou vidět odkazy v code. Přihlaste se nebo zaregistrujte ZDARMA.

Jen registrovaní uživatelé mohou vidět odkazy v code. Přihlaste se nebo zaregistrujte ZDARMA.


... MEDIA iNFO
Jen registrovaní uživatelé mohou vidět odkazy v code. Přihlaste se nebo zaregistrujte ZDARMA.

Jen registrovaní uživatelé mohou vidět odkazy v code. Přihlaste se nebo zaregistrujte ZDARMA.

General
Format: Matroska
Format version: Version 4 / Version 2
File size: 6.13 GiB
Duration: 1h 33mn
Overall bit rate: 9 346 Kbps
Movie name: Good Dinosaur (2015)
Encoded date: UTC 2016-03-28 19:52:21
Writing application: mkvmerge v7.9.0 ('Birds';) 64bit
Writing library: libebml v1.3.1 + libmatroska v1.4.2

Video
ID: 1
Format: AVC
Format/Info: Advanced Video Codec
Format profile: [email protected]
Format settings, CABAC: Yes
Format settings, ReFrames: 12 frames
Codec ID: V_MPEG4/ISO/AVC
Duration: 1h 33mn
Bit rate: 5 700 Kbps
Width: 1 280 pixels
Height: 536 pixels
Display aspect ratio: 2.40:1
Frame rate mode: Constant
Frame rate: 23.976 (24000/1001) fps
Color space: YUV
Chroma subsampling: 4:2:0
Bit depth: 8 bits
Scan type: Progressive
Bits/(Pixel*Frame): 0.347
Stream size: 3.73 GiB (61%)
Title: HDChina
Writing library: x264 core 148 r2597 e86f3a1
Encoding settings: cabac=1 / ref=12 / deblock=1:-3:-3 / analyse=0x3:0x133 / me=umh / subme=11 / psy=1 / psy_rd=1.05:0.00 / mixed_ref=1 / me_range=32 / chroma_me=1 / trellis=2 / 8x8dct=1 / cqm=0 / deadzone=21,11 / fast_pskip=0 / chroma_qp_offset=-2 / threads=17 / lookahead_threads=2 / sliced_threads=0 / nr=0 / decimate=0 / interlaced=0 / bluray_compat=0 / constrained_intra=0 / bframes=8 / b_pyramid=2 / b_adapt=2 / b_bias=0 / direct=3 / weightb=1 / open_gop=0 / weightp=2 / keyint=240 / keyint_min=24 / scenecut=40 / intra_refresh=0 / rc=2pass / mbtree=0 / bitrate=5700 / ratetol=1.0 / qcomp=0.70 / qpmin=0 / qpmax=69 / qpstep=4 / cplxblur=20.0 / qblur=0.5 / ip_ratio=1.10 / pb_ratio=1.20 / aq=3:0.85
Language: English
Default: Yes
Forced: No

Audio #1
ID: 2
Format: AC-3
Format/Info: Audio Coding 3
Mode extension: CM (complete main)
Format settings, Endianness: Big
Codec ID: A_AC3
Duration: 1h 33mn
Bit rate mode: Constant
Bit rate: 640 Kbps
Channel(s): 6 channels
Channel positions: Front: L C R, Side: L R, LFE
Sampling rate: 48.0 KHz
Frame rate: 31.250 fps (1536 spf)
Compression mode: Lossy
Stream size: 430 MiB (7%)
Title: Czech AC3 5.1
Language: Czech
Default: Yes
Forced: No

Audio #2
ID: 3
Format: DTS
Format/Info: Digital Theater Systems
Mode: 16
Format settings, Endianness: Big
Codec ID: A_DTS
Duration: 1h 33mn
Bit rate mode: Constant
Bit rate: 1 509 Kbps
Channel(s): 6 channels
Channel positions: Front: L C R, Side: L R, LFE
Sampling rate: 48.0 KHz
Frame rate: 93.750 fps (512 spf)
Bit depth: 24 bits
Compression mode: Lossy
Stream size: 1 013 MiB (16%)
Title: Czech DTS 5.1
Language: Czech
Default: No
Forced: No

Audio #3
ID: 4
Format: DTS
Format/Info: Digital Theater Systems
Mode: 16
Format settings, Endianness: Big
Codec ID: A_DTS
Duration: 1h 33mn
Bit rate mode: Constant
Bit rate: 1 509 Kbps
Channel(s): 6 channels
Channel positions: Front: L C R, Side: L R, LFE
Sampling rate: 48.0 KHz
Frame rate: 93.750 fps (512 spf)
Bit depth: 24 bits
Compression mode: Lossy
Stream size: 1 011 MiB (16%)
Title: English DTS 5.1
Language: English
Default: No
Forced: No

Text
ID: 5
Format: UTF-8
Codec ID: S_TEXT/UTF8
Codec ID/Info: UTF-8 Plain Text
Duration: 1h 24mn
Bit rate: 23 bps
Count of elements: 482
Stream size: 14.5 KiB (0%)
Title: Cz
Language: Czech
Default: No
Forced: No

General
Format: Matroska
Format version: Version 4 / Version 2
File size: 10.9 GiB
Duration: 1h 33mn
Overall bit rate: 16.6 Mbps
Movie name: Good Dinosaur (2015)
Encoded date: UTC 2016-03-28 20:02:06
Writing application: mkvmerge v7.9.0 ('Birds';) 64bit
Writing library: libebml v1.3.1 + libmatroska v1.4.2

Video
ID: 1
Format: AVC
Format/Info: Advanced Video Codec
Format profile: [email protected]
Format settings, CABAC: Yes
Format settings, ReFrames: 5 frames
Codec ID: V_MPEG4/ISO/AVC
Duration: 1h 33mn
Bit rate: 13.0 Mbps
Width: 1 920 pixels
Height: 804 pixels
Display aspect ratio: 2.40:1
Frame rate mode: Constant
Frame rate: 23.976 (24000/1001) fps
Color space: YUV
Chroma subsampling: 4:2:0
Bit depth: 8 bits
Scan type: Progressive
Bits/(Pixel*Frame): 0.351
Stream size: 8.50 GiB (78%)
Title: HDChina
Writing library: x264 core 148 r2597 e86f3a1
Encoding settings: cabac=1 / ref=5 / deblock=1:-3:-3 / analyse=0x3:0x133 / me=umh / subme=11 / psy=1 / psy_rd=1.05:0.00 / mixed_ref=1 / me_range=48 / chroma_me=1 / trellis=2 / 8x8dct=1 / cqm=0 / deadzone=21,11 / fast_pskip=0 / chroma_qp_offset=-2 / threads=24 / lookahead_threads=4 / sliced_threads=0 / nr=0 / decimate=0 / interlaced=0 / bluray_compat=0 / constrained_intra=0 / bframes=8 / b_pyramid=2 / b_adapt=2 / b_bias=0 / direct=3 / weightb=1 / open_gop=0 / weightp=2 / keyint=240 / keyint_min=24 / scenecut=40 / intra_refresh=0 / rc=2pass / mbtree=0 / bitrate=13000 / ratetol=1.0 / qcomp=0.70 / qpmin=0 / qpmax=69 / qpstep=4 / cplxblur=20.0 / qblur=0.5 / ip_ratio=1.10 / pb_ratio=1.20 / aq=3:0.85
Language: English
Default: Yes
Forced: No

Audio #1
ID: 2
Format: AC-3
Format/Info: Audio Coding 3
Mode extension: CM (complete main)
Format settings, Endianness: Big
Codec ID: A_AC3
Duration: 1h 33mn
Bit rate mode: Constant
Bit rate: 640 Kbps
Channel(s): 6 channels
Channel positions: Front: L C R, Side: L R, LFE
Sampling rate: 48.0 KHz
Frame rate: 31.250 fps (1536 spf)
Compression mode: Lossy
Stream size: 430 MiB (4%)
Title: Czech AC3 5.1
Language: Czech
Default: Yes
Forced: No

Audio #2
ID: 3
Format: DTS
Format/Info: Digital Theater Systems
Mode: 16
Format settings, Endianness: Big
Codec ID: A_DTS
Duration: 1h 33mn
Bit rate mode: Constant
Bit rate: 1 509 Kbps
Channel(s): 6 channels
Channel positions: Front: L C R, Side: L R, LFE
Sampling rate: 48.0 KHz
Frame rate: 93.750 fps (512 spf)
Bit depth: 24 bits
Compression mode: Lossy
Stream size: 1 013 MiB (9%)
Title: Czech DTS 5.1
Language: Czech
Default: No
Forced: No

Audio #3
ID: 4
Format: DTS
Format/Info: Digital Theater Systems
Mode: 16
Format settings, Endianness: Big
Codec ID: A_DTS
Duration: 1h 33mn
Bit rate mode: Constant
Bit rate: 1 509 Kbps
Channel(s): 6 channels
Channel positions: Front: L C R, Side: L R, LFE
Sampling rate: 48.0 KHz
Frame rate: 93.750 fps (512 spf)
Bit depth: 24 bits
Compression mode: Lossy
Stream size: 1 011 MiB (9%)
Title: English DTS 5.1
Language: English
Default: No
Forced: No

Text
ID: 5
Format: UTF-8
Codec ID: S_TEXT/UTF8
Codec ID/Info: UTF-8 Plain Text
Duration: 1h 24mn
Bit rate: 23 bps
Count of elements: 482
Stream size: 14.5 KiB (0%)
Title: Cz
Language: Czech
Default: No
Forced: No


... DOWNLOAD 6,1 GB
Jen registrovaní uživatelé mohou vidět odkazy v code. Přihlaste se nebo zaregistrujte ZDARMA.

... DOWNLOAD 10,9 GB
Jen registrovaní uživatelé mohou vidět odkazy v code. Přihlaste se nebo zaregistrujte ZDARMA.

RAR bez komprese, bez hesla, přidán záznam pro opravu dat. Reupload do 14 dní od přidání příspěvku. Žádosti do PM.


28 bře 2016, 22:20
Profil
Warman
Warman

Registrován: 26 kvě 2015, 00:50
Příspěvky: 1226
Příspěvek Re: Hodný dinosaurus / Good Dinosaur, The (2015)

Hodný dinosaurus / The Good Dinosaur (2015)

CSFD:

Jen registrovaní uživatelé mohou vidět odkazy v code. Přihlaste se nebo zaregistrujte ZDARMA.


Re: Hodný dinosaurus / Good Dinosaur, The (2015)

The.Good.Dinosaur.2015.720p.BluRay.x264.DD5.1.CZ

The.Good.Dinosaur.2015.720p.BluRay.x264.DD5.1.CZ
Jazyk: Czech 5.1 640 Kbps , English 5.1 640 Kbps
Subtitles: Czech


iNFO

Jen registrovaní uživatelé mohou vidět odkazy v code. Přihlaste se nebo zaregistrujte ZDARMA.



Re: Hodný dinosaurus / Good Dinosaur, The (2015)
Jen registrovaní uživatelé mohou vidět odkazy v code. Přihlaste se nebo zaregistrujte ZDARMA.

Jen registrovaní uživatelé mohou vidět odkazy v code. Přihlaste se nebo zaregistrujte ZDARMA.

Přidán záznam na opravu dat 10%.


29 bře 2016, 03:47
Profil
Private
Private

Registrován: 25 říj 2015, 08:09
Příspěvky: 9
Příspěvek Re: Hodný dinosaurus / Good Dinosaur, The (2015)

Hodný dinosaurus / The Good Dinosaur (2015)

Re: Hodný dinosaurus / Good Dinosaur, The (2015)

Název RLS a Jazyk:
The.Good.Dinosaur.2015.BluRay.1080p.DTS.MULTi.x264.CZ.ENG-PiRaTE
Jazyk: Český 5.1 , Anglický 5.1
Titulky: České (Přiložené)
Velikost: 9,60 GiB

CSFD:
Jen registrovaní uživatelé mohou vidět odkazy v code. Přihlaste se nebo zaregistrujte ZDARMA.


DOWNLOAD - FASTSHARE
RAR - Není zaheslovaný
Jen registrovaní uživatelé mohou vidět odkazy v code. Přihlaste se nebo zaregistrujte ZDARMA.


MediaInfo:
Jen registrovaní uživatelé mohou vidět odkazy v code. Přihlaste se nebo zaregistrujte ZDARMA.


29 bře 2016, 16:39
Profil
Private
Private

Registrován: 08 led 2009, 20:06
Příspěvky: 3
Příspěvek Re: Hodný dinosaurus / Good Dinosaur, The (2015)

Nemate nahodou k dispozicii verziu s audio v SK ?


02 kvě 2016, 19:24
Profil
Private
Private

Registrován: 09 úno 2008, 10:34
Příspěvky: 3
Příspěvek Re: Hodný dinosaurus / Good Dinosaur, The (2015)

Zdravím,

byl by možný reupload s CZ a ENG zvukovou stopou 5.1 a v1080p na fastshare?

Děkuji předem.


26 čer 2016, 15:19
Profil
Private
Private

Registrován: 09 úno 2008, 10:34
Příspěvky: 3
Příspěvek Re: Hodný dinosaurus / Good Dinosaur, The (2015)

Haló, haló, nebyla by ta 1080p verze s anglickou i českou zvukovou stopou 5.1? Zkoušel jsem psát i SZ, ale nikdo si nic nepřečetl /) Děkuji.


05 srp 2016, 08:04
Profil
Private
Private

Registrován: 08 led 2009, 20:06
Příspěvky: 3
Příspěvek Re: Hodný dinosaurus / Good Dinosaur, The (2015)

Ja som nikde nenasiel SK audio, helpne mi niekto? ;-)


05 srp 2016, 12:53
Profil
Warman
Warman
Uživatelský avatar

Registrován: 08 črc 2007, 10:57
Příspěvky: 8232
Příspěvek Re: Hodný dinosaurus / Good Dinosaur, The (2015)

Hodný dinosaurus / The Good Dinosaur (2015)
Dobrý dinosaurus

Re: Hodný dinosaurus / Good Dinosaur, The (2015)
Animovaný / Rodinný / Komedie
USA, 2015, 101 min
Jen registrovaní uživatelé mohou vidět odkazy v code. Přihlaste se nebo zaregistrujte ZDARMA.

Režie: Peter Sohn
Scénář: Meg LeFauve
Hudba: Jeff Danna, Mychael Danna
Hrají: Jeffrey Wright, Frances McDormand, Raymond Ochoa, Marcus Scribner, Steve Zahn, Anna Paquin, Sam Elliott, Alan Tudyk, A. J. Buckley, John Ratzenberger, Carrie Paff

Obsah:

Animovaný film „Hodný dinosaurus" si pohrává s otázkou: Co kdyby asteroid, který jednou provždy změnil život na Zemi, naši planetu minul a obří dinosauři nikdy nevyhynuli? Pixar Animation Studios vás zvou na dobrodružnou výpravu do světa dinosaurů, kde se Apatosaurus jménem Arlo spřátelí s člověkem. Na cestách drsnou, ale překrásnou divočinou se Arlo naučí čelit svému strachu a zjistí, že je schopen velkých činů.



Jen registrovaní uživatelé mohou vidět odkazy v code. Přihlaste se nebo zaregistrujte ZDARMA.

Bez HESLA
PŘED STAHOVÁNÍM JE TŘEBA ZKONTROLOVAT FUNKČNOST LINKŮ !!!

PŘIDÁN ZÁZNAM NA OPRAVU DAT 5% .POKUD ARCHÍV NEJDE ROZBALIT A HLASÍ CHYBU CRC,
JE POTŘEBA OPRAVA VE WINRARU.

Rary nezálohuju!!! Po nabonzování novej up
Re: Hodný dinosaurus / Good Dinosaur, The (2015)Re: Hodný dinosaurus / Good Dinosaur, The (2015)
fastshare
Jen registrovaní uživatelé mohou vidět odkazy v code. Přihlaste se nebo zaregistrujte ZDARMA.

sdilej
Jen registrovaní uživatelé mohou vidět odkazy v code. Přihlaste se nebo zaregistrujte ZDARMA.

euroshare
Jen registrovaní uživatelé mohou vidět odkazy v code. Přihlaste se nebo zaregistrujte ZDARMA.

hellshare
Jen registrovaní uživatelé mohou vidět odkazy v code. Přihlaste se nebo zaregistrujte ZDARMA.

Linky jsou kombinovatelné
STÁHNOUT,VYZKOUŠET A POSOUDIT,ZDA KOUPIT,NEBO NEKOUPIT,,,
Koupí pirátských filmů podporujete zloděje
Pokud jsi můj upload stáhl a líbil se Ti,kup si ho,dokud je ještě k mání.
PODĚKOVÁNÍ VÁM NEUBLÍŽÍ A MĚ MOTIVUJE
Jak předejít infarktu?Poslat do řiti každého dřív,než Tě nasere,,,
enjoy_by_lepin
Re: Hodný dinosaurus / Good Dinosaur, The (2015)
Re: Hodný dinosaurus / Good Dinosaur, The (2015)


06 lis 2016, 15:04
Profil
Zobrazit příspěvky za předchozí:  Seřadit podle  
Odeslat nové téma Odpovědět na téma  [ Příspěvků: 13 ] 

Všechny časy jsou v UTC + 1 hodina


Nemůžete zakládat nová témata v tomto fóru
Nemůžete odpovídat v tomto fóru
Nemůžete upravovat své příspěvky v tomto fóru
Nemůžete mazat své příspěvky v tomto fóru
Nemůžete přikládat soubory v tomto fóru









StahovaniZaSMS Pizza Modena MP3 free download