fastshare
Strážci Galaxie Vol.2 / Guardians of the Galaxy Vol.2 (2017)
Vypnout statistiky
KATEGORIEPOSLEDNÍ PŘÍSPĚVKYPOSLEDNÍ OZNÁMENÍSTATISTIKY UŽIVATELE
Nick: Anonymous
Příspěvků: 3361
Hodnost: Warman
Varování: 0
---
Právě je 18 říj 2018, 06:41





Všechny časy jsou v UTC + 1 hodina


Pravidla fóra







Odeslat nové téma Odpovědět na téma  [ Příspěvků: 7 ] 
 Strážci Galaxie Vol.2 / Guardians of the Galaxy Vol.2 (2017) 
Autor Zpráva
Warman
Warman

Registrován: 26 kvě 2015, 00:50
Příspěvky: 1360
Příspěvek Strážci Galaxie Vol.2 / Guardians of the Galaxy Vol.2 (2017)

Strážci Galaxie Vol.2 / Guardians of the Galaxy Vol.2 (2017)

CSFD:

Jen registrovaní uživatelé mohou vidět odkazy v code. Přihlaste se nebo zaregistrujte ZDARMA.


Strážci Galaxie Vol.2 / Guardians of the Galaxy Vol.2 (2017)

Guardians.of.the.Galaxy.Vol.2.2017.720p.BluRay.x264.CZ
Guardians.of.the.Galaxy.Vol.2.2017.1080p.BluRay.x264.CZ
Guardians.of.the.Galaxy.Vol.2.2017.1080p.BluRay.x264.CZ


Guardians.of.the.Galaxy.Vol.2.2017.720p.BluRay.x264.CZ
Jazyk: Czech 2,0 192 Kbps , English 5.1 640 Kbps
Subtitles: Czech forced , Czech , English

iNFO

Jen registrovaní uživatelé mohou vidět odkazy v code. Přihlaste se nebo zaregistrujte ZDARMA.


Strážci Galaxie Vol.2 / Guardians of the Galaxy Vol.2 (2017)
Jen registrovaní uživatelé mohou vidět odkazy v code. Přihlaste se nebo zaregistrujte ZDARMA.

Jen registrovaní uživatelé mohou vidět odkazy v code. Přihlaste se nebo zaregistrujte ZDARMA.

Přidán záznam na opravu dat 5%.
Guardians.of.the.Galaxy.Vol.2.2017.1080p.BluRay.x264.CZ
Jazyk: Czech 2.0 192 Kbps , English 5.1 640 Kbps
Subtitles: Czech forced , Czech , Slovak , English
iNFO

Jen registrovaní uživatelé mohou vidět odkazy v code. Přihlaste se nebo zaregistrujte ZDARMA.


Strážci Galaxie Vol.2 / Guardians of the Galaxy Vol.2 (2017)
Jen registrovaní uživatelé mohou vidět odkazy v code. Přihlaste se nebo zaregistrujte ZDARMA.

Jen registrovaní uživatelé mohou vidět odkazy v code. Přihlaste se nebo zaregistrujte ZDARMA.

Přidán záznam na opravu dat 5%.
Guardians.of.the.Galaxy.Vol.2.2017.1080p.BluRay.x264.CZ
Jazyk: Czech 2.0 192 Kbps , English 5.1 640 Kbps
Subtitles: Czech forced , Czech , English
iNFO

Jen registrovaní uživatelé mohou vidět odkazy v code. Přihlaste se nebo zaregistrujte ZDARMA.


Strážci Galaxie Vol.2 / Guardians of the Galaxy Vol.2 (2017)
Jen registrovaní uživatelé mohou vidět odkazy v code. Přihlaste se nebo zaregistrujte ZDARMA.

Přidán záznam na opravu dat 5%.


Naposledy upravil browing3006 dne 03 zář 2017, 20:30, celkově upraveno 1

03 zář 2017, 07:31
Profil
Private
Private

Registrován: 07 led 2007, 14:09
Příspěvky: 4
Příspěvek Re: Strážci Galaxie Vol.2 / Guardians of the Galaxy Vol.2 (2

Dá to prosím někdo na euroshare děkuji


03 zář 2017, 10:08
Profil
Private
Private

Registrován: 10 říj 2009, 15:34
Příspěvky: 7
Příspěvek Re: Strážci Galaxie Vol.2 / Guardians of the Galaxy Vol.2 (2

nebo webshare


03 zář 2017, 18:59
Profil
Colonel 3 rd class
Colonel 3 rd class

Registrován: 06 úno 2011, 19:29
Příspěvky: 489
Příspěvek Re: Strážci Galaxie Vol.2 / Guardians of the Galaxy Vol.2 (2

Strážci Galaxie Vol.2 / Guardians of the Galaxy Vol.2 (2017)
Uploaded By - Europa2 | Enjoy and say Thanks !!

Obal/Cover:

Re: Strážci Galaxie Vol.2 / Guardians of the Galaxy Vol.2 (2

Informácie/Informations:

Jen registrovaní uživatelé mohou vidět odkazy v code. Přihlaste se nebo zaregistrujte ZDARMA.


Kvalita/Quality:

Jazyk: Czech 2.0, DTS English, English Commentary 2.0
Subtitles: Czech forced, Czech, English

Format : Matroska
Format version : Version 4 / Version 2
File size : 14.4 GiB
Duration : 2 h 15 min
Overall bit rate : 15.1 Mb/s
Encoded date : UTC 2017-09-02 16:13:03
Writing application : mkvmerge v9.5.0 ('Quiet Fire') 64bit
Writing library : libebml v1.3.4 + libmatroska v1.4.5

Video
ID : 7
Format : AVC
Format/Info : Advanced Video Codec
Format profile : [email protected]
Format settings, CABAC : Yes
Format settings, ReFrames : 5 frames
Codec ID : V_MPEG4/ISO/AVC
Duration : 2 h 15 min
Bit rate : 13.4 Mb/s
Width : 1 920 pixels
Height : 804 pixels
Display aspect ratio : 2.40:1
Frame rate mode : Constant
Frame rate : 23.976 (23976/1000) FPS
Original frame rate : 23.976 (24000/1001) FPS
Color space : YUV
Chroma subsampling : 4:2:0
Bit depth : 8 bits
Scan type : Progressive
Bits/(Pixel*Frame) : 0.361
Stream size : 12.7 GiB (88%)
Title : Guardians of the Galaxy Vol 2 2017 1080p BluRay DTS x264-DopeHD
Writing library : x264 core 148 r2744kMod b97ae06
Encoding settings : cabac=1 / ref=5 / deblock=1:-3:-3 / analyse=0x3:0x133 / me=umh / subme=10 / psy=1 / fade_compensate=0.00 / psy_rd=1.06:0.00 / mixed_ref=1 / me_range=32 / chroma_me=1 / trellis=2 / 8x8dct=1 / cqm=0 / deadzone=21,11 / fast_pskip=1 / chroma_qp_offset=-2 / threads=8 / lookahead_threads=2 / sliced_threads=0 / nr=0 / decimate=1 / interlaced=0 / bluray_compat=0 / constrained_intra=0 / bframes=10 / b_pyramid=2 / b_adapt=2 / b_bias=0 / direct=3 / weightb=1 / open_gop=0 / weightp=2 / keyint=250 / keyint_min=23 / scenecut=40 / intra_refresh=0 / rc_lookahead=150 / rc=crf / mbtree=0 / crf=15.9000 / qcomp=0.65 / qpmin=0 / qpmax=69 / qpstep=4 / vbv_maxrate=50000 / vbv_bufsize=62500 / crf_max=0.0 / nal_hrd=none / filler=0 / ip_ratio=1.30 / pb_ratio=1.20 / aq=3:0.80 / zones=601,853,crf=14.9/2325,2424,crf=14.9/48762,48860,crf=14.9/61495,61589,crf=14.9/62574,62671,crf=14.9/132744,132824,crf=14.9
Language : English
Default : Yes
Forced : Yes

Audio #1
ID : 1
Format : AC-3
Format/Info : Audio Coding 3
Mode extension : CM (complete main)
Format settings, Endianness : Big
Codec ID : A_AC3
Duration : 2 h 15 min
Bit rate mode : Constant
Bit rate : 192 kb/s
Channel(s) : 2 channels
Channel positions : Front: L R
Sampling rate : 48.0 kHz
Frame rate : 31.250 FPS (1536 spf)
Bit depth : 16 bits
Compression mode : Lossy
Stream size : 186 MiB (1%)
Language : Czech
Default : Yes
Forced : Yes

Audio #2
ID : 2
Format : DTS
Format/Info : Digital Theater Systems
Mode : 16
Format settings, Endianness : Big
Codec ID : A_DTS
Duration : 2 h 15 min
Bit rate mode : Constant
Bit rate : 1 509 kb/s
Channel(s) : 6 channels
Channel positions : Front: L C R, Side: L R, LFE
Sampling rate : 48.0 kHz
Frame rate : 93.750 FPS (512 spf)
Bit depth : 24 bits
Compression mode : Lossy
Stream size : 1.43 GiB (10%)
Language : English
Default : No
Forced : No

Audio #3
ID : 3
Format : AAC
Format/Info : Advanced Audio Codec
Format profile : HE-AAC / LC
Codec ID : A_AAC
Duration : 2 h 15 min
Bit rate : 73.7 kb/s
Channel(s) : 2 channels
Channel positions : Front: L R
Sampling rate : 48.0 kHz / 24.0 kHz
Frame rate : 23.438 FPS (1024 spf)
Compression mode : Lossy
Delay relative to video : 31 ms
Stream size : 71.6 MiB (0%)
Title : commentary
Language : English
Default : No
Forced : No

Text #1
ID : 4
Format : UTF-8
Codec ID : S_TEXT/UTF8
Codec ID/Info : UTF-8 Plain Text
Duration : 2 h 6 min
Bit rate : 0 b/s
Count of elements : 11
Stream size : 174 Bytes (0%)
Title : forced
Language : Czech
Default : Yes
Forced : Yes

Text #2
ID : 5
Format : UTF-8
Codec ID : S_TEXT/UTF8
Codec ID/Info : UTF-8 Plain Text
Duration : 2 h 14 min
Bit rate : 43 b/s
Count of elements : 1540
Stream size : 43.2 KiB (0%)
Language : Czech
Default : No
Forced : No

Text #3
ID : 6
Format : UTF-8
Codec ID : S_TEXT/UTF8
Codec ID/Info : UTF-8 Plain Text
Duration : 2 h 14 min
Bit rate : 47 b/s
Count of elements : 1608
Stream size : 46.7 KiB (0%)
Language : English
Default : No
Forced : No

Menu #1
00:00:00.000 : en:00:00:00.000
00:09:56.179 : en:00:09:56.179
00:15:10.118 : en:00:15:10.118
00:22:14.083 : en:00:22:14.083
00:32:33.702 : en:00:32:33.702
00:36:52.127 : en:00:36:52.127
00:42:29.172 : en:00:42:29.172
00:48:03.464 : en:00:48:03.464
00:53:18.904 : en:00:53:18.904
00:58:45.939 : en:00:58:45.939
01:05:52.240 : en:01:05:52.240
01:11:12.435 : en:01:11:12.435
01:18:43.594 : en:01:18:43.594
01:23:55.322 : en:01:23:55.322
01:30:24.753 : en:01:30:24.753
01:39:36.179 : en:01:39:36.179
01:47:06.211 : en:01:47:06.211
01:54:21.605 : en:01:54:21.605
01:58:53.710 : en:01:58:53.710
02:07:13.459 : en:02:07:13.459

Menu #2
00:00:00.000 : en:00:00:00.000
00:09:56.179 : en:00:09:56.179
00:15:10.118 : en:00:15:10.118
00:22:14.083 : en:00:22:14.083
00:32:33.702 : en:00:32:33.702
00:36:52.127 : en:00:36:52.127
00:42:29.172 : en:00:42:29.172
00:48:03.464 : en:00:48:03.464
00:53:18.904 : en:00:53:18.904
00:58:45.939 : en:00:58:45.939
01:05:52.240 : en:01:05:52.240
01:11:12.435 : en:01:11:12.435
01:18:43.594 : en:01:18:43.594
01:23:55.322 : en:01:23:55.322
01:30:24.753 : en:01:30:24.753
01:39:36.179 : en:01:39:36.179
01:47:06.211 : en:01:47:06.211
01:54:21.605 : en:01:54:21.605
01:58:53.710 : en:01:58:53.710
02:07:13.459 : en:02:07:13.459

Menu #3
00:00:00.097 : en:00:00:00.097


Stahuj/Downlaod:

Jen registrovaní uživatelé mohou vidět odkazy v code. Přihlaste se nebo zaregistrujte ZDARMA.


Heslo/Password:
Jen registrovaní uživatelé mohou vidět odkazy v code. Přihlaste se nebo zaregistrujte ZDARMA.


03 zář 2017, 23:33
Profil
Private 1 st class
Private 1 st class

Registrován: 12 črc 2009, 11:48
Příspěvky: 22
Příspěvek Re: Strážci Galaxie Vol.2 / Guardians of the Galaxy Vol.2 (2

Smazáno ...


04 zář 2017, 09:50
Profil
Warman
Warman

Registrován: 26 kvě 2015, 00:50
Příspěvky: 1360
Příspěvek Re: Strážci Galaxie Vol.2 / Guardians of the Galaxy Vol.2 (2

Strážci Galaxie Vol.2 / Guardians of the Galaxy Vol.2 (2017)

CSFD:

Jen registrovaní uživatelé mohou vidět odkazy v code. Přihlaste se nebo zaregistrujte ZDARMA.


Re: Strážci Galaxie Vol.2 / Guardians of the Galaxy Vol.2 (2

Guardians.of.the.Galaxy.Vol.2.2017.720p.BluRay.x264.DD5.1.CZ
Guardians.of.the.Galaxy.Vol.2.2017.1080p.BluRay.x264.DD5.1.CZ
Guardians.of.the.Galaxy.Vol.2.2017.1080p.BluRay.x264.DD5.1.CZ
Guardians.of.the.Galaxy.Vol.2.2017.1080p.BluRay.REMUX.x264.DD5.1.CZ


Guardians.of.the.Galaxy.Vol.2.2017.720p.BluRay.x264.DD5.1.CZ
Jazyk: Czech 5.1 640 Kbps , English 5.1 640 Kbps
Subtitles: Czech forced , Czech , English

iNFO

Jen registrovaní uživatelé mohou vidět odkazy v code. Přihlaste se nebo zaregistrujte ZDARMA.


Re: Strážci Galaxie Vol.2 / Guardians of the Galaxy Vol.2 (2
Jen registrovaní uživatelé mohou vidět odkazy v code. Přihlaste se nebo zaregistrujte ZDARMA.

Přidán záznam na opravu dat 5%.
Guardians.of.the.Galaxy.Vol.2.2017.1080p.BluRay.x264.DD5.1.CZ
Jazyk: Czech 5.1 640 Kbps , English 5.1 640 Kbps
Subtitles: Czech forced , Czech , English
iNFO

Jen registrovaní uživatelé mohou vidět odkazy v code. Přihlaste se nebo zaregistrujte ZDARMA.


Re: Strážci Galaxie Vol.2 / Guardians of the Galaxy Vol.2 (2
Jen registrovaní uživatelé mohou vidět odkazy v code. Přihlaste se nebo zaregistrujte ZDARMA.

Přidán záznam na opravu dat 5%.
Guardians.of.the.Galaxy.Vol.2.2017.1080p.BluRay.x264.DD5.1.CZ
Jazyk: Czech 5.1 640 Kbps , English 5.1 640 Kbps
Subtitles: Czech forced , Czech , English
iNFO

Jen registrovaní uživatelé mohou vidět odkazy v code. Přihlaste se nebo zaregistrujte ZDARMA.


Re: Strážci Galaxie Vol.2 / Guardians of the Galaxy Vol.2 (2
Jen registrovaní uživatelé mohou vidět odkazy v code. Přihlaste se nebo zaregistrujte ZDARMA.

Přidán záznam na opravu dat 5%.
Guardians.of.the.Galaxy.Vol.2.2017.1080p.BluRay.REMUX.x264.DD5.1.CZ
Jazyk: Czech 5.1 640 Kbps , English 5.1 DTS 1 509 Kbps
Subtitles: Czech forced , Czech , English
iNFO

Jen registrovaní uživatelé mohou vidět odkazy v code. Přihlaste se nebo zaregistrujte ZDARMA.


Re: Strážci Galaxie Vol.2 / Guardians of the Galaxy Vol.2 (2
Jen registrovaní uživatelé mohou vidět odkazy v code. Přihlaste se nebo zaregistrujte ZDARMA.

Přidán záznam na opravu dat 5%.


21 zář 2017, 20:43
Profil
Major
Major

Registrován: 30 pro 2007, 17:16
Příspěvky: 348
Příspěvek Re: Strážci Galaxie Vol.2 / Guardians of the Galaxy Vol.2 (2

Strážci Galaxie Vol. 2 / Guardians of the Galaxy Vol. 2 (2017)
Video/Zdroj: BluRay 1080p
Audio: CZ 5.1ch AC-3, EN 5.1ch AC-3
Titulky: CZ, EN

Re: Strážci Galaxie Vol.2 / Guardians of the Galaxy Vol.2 (2

Jen registrovaní uživatelé mohou vidět odkazy v code. Přihlaste se nebo zaregistrujte ZDARMA.


Citace:
Format : Matroska
Format version : Version 4 / Version 2
File size : 14.6 GiB
Duration : 2 h 15 min
Overall bit rate : 15.4 Mb/s

Video
Format : AVC
Format profile : [email protected]
Duration : 2 h 15 min
Bit rate : 14.1 Mb/s
Width : 1 920 pixels
Height : 804 pixels
Display aspect ratio : 2.40:1
Frame rate mode : Constant
Frame rate : 23.976 (24000/1001) FPS
Color space : YUV
Chroma subsampling : 4:2:0
Bit depth : 8 bits
Scan type : Progressive
Bits/(Pixel*Frame) : 0.382
Stream size : 13.1 GiB (90%)

Audio #1
Format : AC-3
Duration : 2 h 15 min
Bit rate mode : Constant
Bit rate : 640 kb/s
Channel(s) : 6 channels
Channel positions : Front: L C R, Side: L R, LFE
Sampling rate : 48.0 kHz
Frame rate : 31.250 FPS (1536 SPF)
Bit depth : 16 bits
Compression mode : Lossy
Stream size : 622 MiB (4%)
Language : Czech
Default : Yes
Forced : Yes

Audio #2
Format : AC-3
Duration : 2 h 15 min
Bit rate mode : Constant
Bit rate : 640 kb/s
Channel(s) : 6 channels
Channel positions : Front: L C R, Side: L R, LFE
Sampling rate : 48.0 kHz
Frame rate : 31.250 FPS (1536 SPF)
Bit depth : 16 bits
Compression mode : Lossy
Stream size : 622 MiB (4%)
Language : English
Default : No
Forced : No

Text #1
Format : UTF-8
Language : Czech
Default : Yes
Forced : Yes

Text #2
Format : UTF-8
Language : Czech
Default : No
Forced : No

Text #3
Format : UTF-8
Language : English
Default : No
Forced : No

Text #4
Format : PGS
Language : English
Default : No
Forced : No

Text #5
Format : PGS
Language : English
Default : No
Forced : No


Jen registrovaní uživatelé mohou vidět odkazy v code. Přihlaste se nebo zaregistrujte ZDARMA.


Bez hesla. Balené bez kompresie. Pridaný záznam pre opravu dát 5%.


21 dub 2018, 21:35
Profil
Zobrazit příspěvky za předchozí:  Seřadit podle  
Odeslat nové téma Odpovědět na téma  [ Příspěvků: 7 ] 

Všechny časy jsou v UTC + 1 hodina


Nemůžete zakládat nová témata v tomto fóru
Nemůžete odpovídat v tomto fóru
Nemůžete upravovat své příspěvky v tomto fóru
Nemůžete mazat své příspěvky v tomto fóru
Nemůžete přikládat soubory v tomto fóru









StahovaniZaSMS Pizza Modena MP3 free download