fastshare
Krvavý příliv / Crimson Tide (1995)
Vypnout statistiky
KATEGORIEPOSLEDNÍ PŘÍSPĚVKYPOSLEDNÍ OZNÁMENÍSTATISTIKY UŽIVATELE
Nick: Anonymous
Příspěvků: 3361
Hodnost: Warman
Varování: 0
---
Právě je 17 srp 2018, 01:18





Všechny časy jsou v UTC + 1 hodina


Pravidla fóra







Odeslat nové téma Odpovědět na téma  [ Příspěvků: 4 ] 
 Krvavý příliv / Crimson Tide (1995) 
Autor Zpráva
Major
Major

Registrován: 13 kvě 2009, 20:58
Příspěvky: 314
Příspěvek Krvavý příliv / Crimson Tide (1995)

Crimson.Tide.1995.1080p.Bluray.x264-FSiHD.CZ-ACS
Krvavý příliv / Crimson Tide (1995)
Info:
Jen registrovaní uživatelé mohou vidět odkazy v code. Přihlaste se nebo zaregistrujte ZDARMA.


Kvalita:
Jen registrovaní uživatelé mohou vidět odkazy v code. Přihlaste se nebo zaregistrujte ZDARMA.

SAMPLE:
Jen registrovaní uživatelé mohou vidět odkazy v code. Přihlaste se nebo zaregistrujte ZDARMA.


Download:
Jen registrovaní uživatelé mohou vidět odkazy v code. Přihlaste se nebo zaregistrujte ZDARMA.


05 zář 2011, 14:55
Profil
Colonel 2 nd class
Colonel 2 nd class
Uživatelský avatar

Registrován: 18 úno 2008, 17:27
Příspěvky: 428
Příspěvek Re: Krvavý příliv / Crimson Tide (1995)

Název: Krvavý příliv / Crimson Tide (1995)

Zdroj: Crimson.Tide.1995.1080p.TO.RM.Cz

Re: Krvavý příliv / Crimson Tide (1995)

Re: Krvavý příliv / Crimson Tide (1995)


Re: Krvavý příliv / Crimson Tide (1995)

Jen registrovaní uživatelé mohou vidět odkazy v code. Přihlaste se nebo zaregistrujte ZDARMA.


Re: Krvavý příliv / Crimson Tide (1995)

Citace:
Akční / Drama / Thriller
USA, 1995, 116 min


Režie: Tony Scott
Hrají: Denzel Washington, Gene Hackman, Matt Craven, George Dzundza, Viggo Mortensen, James Gandolfini, Jaime Gomez, Danny Nucci, Lillo Brancato, Rick Schroder, Steve Zahn, Christopher Birt, Jacob Vargas, Michael Chieffo, Vanessa Bell Calloway, Brenden Jefferson, Daniel von Bargen, Scott Grimes, Ryan Phillippe, Jason Robards, Gerald Emerick, James Lesure, Steve Gonzales, Chris Ellis, Mark Christopher Lawrence, Rocky Carroll, R.J. Knoll


Ruská ultranacionalistická frakce začíná vážně ohrožovat světový mír. Je vyhlášen stupeň nejvyšší pohotovosti a z americké námořní základny vyplouvá ponorka Alabama, jejíž jaderný potenciál může snadno rozpoutat třetí světovou válku. Do východního Pacifiku ji vede zkušený voják kapitán Ramsey, který nikdy nepochybuje o prvním příkazu a jde do akce, jakmile má seznam označených cílů. Rozhodování na nejničivějším válečném stroji má ale své pojistky a nový muž na palubě, velící důstojník Hunter, bere své povinnosti i pravomoci velice vážně. Ve chvíli, kdy je přerušeno spojení s velícím střediskem a není možné ověřit příkaz k odpálení jaderných střel, přebírá vedení. Začíná boj o kapitánský můstek, kde se rozhoduje o rozpoutání jaderného holocaustu, z něhož není návratu. Zatímco kolem Alabamy sviští ruská torpéda, na její palubě propuká vzpoura. (oficiální text distributora)

Complete name : D:\filmy download\Crm.by.dadinek2.of.poweruploaders\Crimson.Tide.CZ.1080p.TO.RM.mkv
Format : Matroska
File size : 8.20 GiB
Duration : 1h 55mn
Overall bit rate : 10.1 Mbps
Encoded date : UTC 2011-09-05 07:21:42
Writing application : mkvmerge v4.7.0 ('Just Like You Imagined') built on Apr 21 2011 01:13:14
Writing library : libebml v1.2.0 + libmatroska v1.1.0

Video
ID : 1
Format : AVC
Format/Info : Advanced Video Codec
Format profile : [email protected]
Format settings, CABAC : Yes
Format settings, ReFrames : 5 frames
Muxing mode : Container [email protected]
Codec ID : V_MPEG4/ISO/AVC
Duration : 1h 55mn
Bit rate : 8 965 Kbps
Nominal bit rate : 9 183 Kbps
Width : 1 920 pixels
Height : 800 pixels
Display aspect ratio : 2.400
Frame rate : 23.976 fps
Resolution : 24 bits
Colorimetry : 4:2:0
Scan type : Progressive
Bits/(Pixel*Frame) : 0.243
Stream size : 7.25 GiB (88%)
Title : Crimson.Tide.1995.1080p.Bluray.x264-FSiHD.CZ-ACS
Writing library : x264 core 67 r1145M d2e1e1c
Encoding settings : cabac=1 / ref=5 / deblock=1:0:0 / analyse=0x3:0x133 / me=umh / subme=7 / psy_rd=1.0:0.0 / mixed_ref=1 / me_range=16 / chroma_me=1 / trellis=1 / 8x8dct=1 / cqm=0 / deadzone=21,11 / chroma_qp_offset=-2 / threads=6 / nr=0 / decimate=1 / mbaff=0 / bframes=3 / b_pyramid=1 / b_adapt=1 / b_bias=0 / direct=1 / wpredb=1 / keyint=250 / keyint_min=25 / scenecut=40 / rc=2pass / bitrate=9183 / ratetol=1.0 / qcomp=0.60 / qpmin=10 / qpmax=51 / qpstep=4 / cplxblur=20.0 / qblur=0.5 / ip_ratio=1.40 / pb_ratio=1.30 / aq=1:1.00

Audio #1
ID : 2
Format : AC-3
Format/Info : Audio Coding 3
Codec ID : A_AC3
Duration : 1h 55mn
Bit rate mode : Constant
Bit rate : 320 Kbps
Channel(s) : 2 channels
Channel positions : L R
Sampling rate : 48.0 KHz
Stream size : 265 MiB (3%)
Title : CZ AC3
Language : Czech

Audio #2
ID : 3
Format : AC-3
Format/Info : Audio Coding 3
Codec ID : A_AC3
Duration : 1h 55mn
Bit rate mode : Constant
Bit rate : 640 Kbps
Channel(s) : 6 channels
Channel positions : Front: L C R, Surround: L R, LFE
Sampling rate : 48.0 KHz
Stream size : 531 MiB (6%)
Title : EN AC3

Text #1
ID : 4
Format : UTF-8
Codec ID : S_TEXT/UTF8
Codec ID/Info : UTF-8 Plain Text
Title : CZ sub
Language : Czech

Text #2
ID : 5
Format : UTF-8
Codec ID : S_TEXT/UTF8
Codec ID/Info : UTF-8 Plain Text
Title : FR sub
Language : French

Text #3
ID : 6
Format : UTF-8
Codec ID : S_TEXT/UTF8
Codec ID/Info : UTF-8 Plain Text
Title : GER sub
Language : German

Text #4
ID : 7
Format : UTF-8
Codec ID : S_TEXT/UTF8
Codec ID/Info : UTF-8 Plain Text
Title : ITA sub
Language : Italian

Text #5
ID : 8
Format : UTF-8
Codec ID : S_TEXT/UTF8
Codec ID/Info : UTF-8 Plain Text
Title : EN sub



Re: Krvavý příliv / Crimson Tide (1995)

Re: Krvavý příliv / Crimson Tide (1995)

Jen registrovaní uživatelé mohou vidět odkazy v code. Přihlaste se nebo zaregistrujte ZDARMA.


Re: Krvavý příliv / Crimson Tide (1995)

Jen registrovaní uživatelé mohou vidět odkazy v code. Přihlaste se nebo zaregistrujte ZDARMA.


Re: Krvavý příliv / Crimson Tide (1995)

Jen registrovaní uživatelé mohou vidět odkazy v code. Přihlaste se nebo zaregistrujte ZDARMA.



Re: Krvavý příliv / Crimson Tide (1995)

Jen registrovaní uživatelé mohou vidět odkazy v code. Přihlaste se nebo zaregistrujte ZDARMA.


Zákaz Reuploadu mého příspěvku na jakýkoliv server a vynášení na Torenty a jiná warez fora,
než na jaká postuji !!!


28 pro 2011, 18:00
Profil
Warrant
Warrant

Registrován: 30 pro 2010, 21:16
Příspěvky: 183
Příspěvek Krvavý příliv / Crimson Tide (1995)

xxx


Naposledy upravil sabres dne 22 úno 2018, 00:13, celkově upraveno 1

14 úno 2017, 15:42
Profil
Captain
Captain

Registrován: 19 bře 2008, 12:55
Příspěvky: 264
Příspěvek Re: Krvavý příliv / Crimson Tide (1995)

Krvavý příliv / Crimson Tide / 1080p / 1995
Re: Krvavý příliv / Crimson Tide (1995)
Jen registrovaní uživatelé mohou vidět odkazy v code. Přihlaste se nebo zaregistrujte ZDARMA.


Re: Krvavý příliv / Crimson Tide (1995)
Jen registrovaní uživatelé mohou vidět odkazy v code. Přihlaste se nebo zaregistrujte ZDARMA.

RAR 5%: 4x5GB + 1,321GB
Re: Krvavý příliv / Crimson Tide (1995)
Jen registrovaní uživatelé mohou vidět odkazy v code. Přihlaste se nebo zaregistrujte ZDARMA.


21 lis 2017, 11:21
Profil
Zobrazit příspěvky za předchozí:  Seřadit podle  
Odeslat nové téma Odpovědět na téma  [ Příspěvků: 4 ] 

Všechny časy jsou v UTC + 1 hodina


Nemůžete zakládat nová témata v tomto fóru
Nemůžete odpovídat v tomto fóru
Nemůžete upravovat své příspěvky v tomto fóru
Nemůžete mazat své příspěvky v tomto fóru
Nemůžete přikládat soubory v tomto fóru









StahovaniZaSMS Pizza Modena MP3 free download