fastshare
Thor: Ragnarok (2017)
Vypnout statistiky
KATEGORIEPOSLEDNÍ PŘÍSPĚVKYPOSLEDNÍ OZNÁMENÍSTATISTIKY UŽIVATELE
Nick: Anonymous
Příspěvků: 3367
Hodnost: Warman
Varování: 0
---
Právě je 23 kvě 2018, 19:42





Všechny časy jsou v UTC + 1 hodina


Pravidla fóra







Odeslat nové téma Odpovědět na téma  [ Příspěvků: 22 ]  Přejít na stránku Předchozí  1, 2
 Thor: Ragnarok (2017) 
Autor Zpráva
Warman
Warman

Registrován: 26 kvě 2015, 00:50
Příspěvky: 1268
Příspěvek Re: Thor: Ragnarok (2017)

reuploaded
Thor.Ragnarok.2017.720p.BluRay.x264.DD5.1.CZ
Thor.Ragnarok.2017.1080p.BluRay.x264.DD5.1.CZ
Thor.Ragnarok.2017.1080p.BluRay.DTS.REMUX.AVC.DD5.1.CZ


08 bře 2018, 06:07
Profil
Private
Private

Registrován: 20 led 2012, 17:11
Příspěvky: 2
Příspěvek Re: Thor: Ragnarok (2017)

bakyree píše:
Thor: Ragnarok (2017)

OBROVSKÝ VDĚK ZA WEBSHARE BAKYRE, JEN TAK DÁL. UŽ JSEM NEDOUFAL.


Naposledy upravil ladan dne 21 bře 2018, 18:44, celkově upraveno 1
Zkrácena citace příspěvku


11 bře 2018, 12:03
Profil
Private
Private

Registrován: 20 led 2012, 17:11
Příspěvky: 2
Příspěvek Re: Thor: Ragnarok (2017)

mif píše:
Thor: Ragnarok (2017) 1080p_*x265-HEVC*_ AC3.CZ 2.0


:D :D :D VELIKÝ VDĚK ZA WEBSHARE JEN TAK DÁLE :D :D :D


Naposledy upravil ladan dne 21 bře 2018, 18:45, celkově upraveno 1
Zkrácena citace příspěvku


11 bře 2018, 12:04
Profil
Warman
Warman

Registrován: 26 kvě 2015, 00:50
Příspěvky: 1268
Příspěvek Re: Thor: Ragnarok (2017)

reuploaded
Thor.Ragnarok.2017.720p.BluRay.x264.DD5.1.CZ
Thor.Ragnarok.2017.1080p.BluRay.x264.DD5.1.CZ
Thor.Ragnarok.2017.1080p.BluRay.DTS.REMUX.AVC.DD5.1.CZ


13 bře 2018, 17:06
Profil
Captain
Captain

Registrován: 30 pro 2007, 17:16
Příspěvky: 298
Příspěvek Re: Thor: Ragnarok (2017)

Thor: Ragnarok (2017)

Video/Zdroj: BluRay 1080p
Audio: CZ 5.1ch AC-3 , EN 5.1ch AC-3
Titulky: CZ, EN

Re: Thor: Ragnarok (2017)

Jen registrovaní uživatelé mohou vidět odkazy v code. Přihlaste se nebo zaregistrujte ZDARMA.


Citace:
Format : Matroska
File size : 12.1 GiB
Duration : 2 h 10 min
Overall bit rate : 13.3 Mb/s

Video
Format : AVC
Format profile : [email protected]
Duration : 2 h 10 min
Bit rate : 12.0 Mb/s
Width : 1 920 pixels
Height : 804 pixels
Display aspect ratio : 2.40:1
Frame rate mode : Constant
Frame rate : 23.976 (24000/1001) FPS
Color space : YUV
Chroma subsampling : 4:2:0
Bit depth : 8 bits
Scan type : Progressive
Bits/(Pixel*Frame) : 0.324
Stream size : 10.7 GiB (88%)

Audio #1
Format : AC-3
Duration : 2 h 10 min
Bit rate mode : Constant
Bit rate : 640 kb/s
Channel(s) : 6 channels
Channel positions : Front: L C R, Side: L R, LFE
Sampling rate : 48.0 kHz
Frame rate : 31.250 FPS (1536 SPF)
Bit depth : 16 bits
Compression mode : Lossy
Stream size : 597 MiB (5%)
Language : Czech

Audio #2
Format : AC-3
Duration : 2 h 10 min
Bit rate mode : Constant
Bit rate : 640 kb/s
Channel(s) : 6 channels
Channel positions : Front: L C R, Side: L R, LFE
Sampling rate : 48.0 kHz
Frame rate : 31.250 FPS (1536 SPF)
Bit depth : 16 bits
Compression mode : Lossy
Stream size : 597 MiB (5%)
Language : English

Text #1
Format : UTF-8
Language : Czech
Default : Yes
Forced : Yes

Text #2
Format : UTF-8
Language : Czech
Default : No
Forced : No

Text #3
Format : UTF-8
Language : English
Default : No
Forced : No

Text #4
Format : PGS
Language : Czech
Default : No
Forced : No

Text #5
Format : PGS
Language : Czech
Default : No
Forced : No

Text #6
Format : PGS
Language : English
Default : No
Forced : No


Jen registrovaní uživatelé mohou vidět odkazy v code. Přihlaste se nebo zaregistrujte ZDARMA.


Bez hesla. Balené bez kompresie. Pridaný záznam pre opravu dát 5%.


Naposledy upravil Sonty dne 16 kvě 2018, 00:20, celkově upraveno 1

05 dub 2018, 23:32
Profil
Private
Private

Registrován: 10 kvě 2009, 16:18
Příspěvky: 2
Příspěvek Re: Thor: Ragnarok (2017)

Prosím reup na fastshare, všechny linky jsou dead. Díky


26 dub 2018, 21:12
Profil
Colonel 3 rd class
Colonel 3 rd class

Registrován: 15 zář 2017, 11:53
Příspěvky: 481
Příspěvek Re: Thor: Ragnarok (2017)

Proveden reup mého příspěvku


27 dub 2018, 19:35
Profil
Zobrazit příspěvky za předchozí:  Seřadit podle  
Odeslat nové téma Odpovědět na téma  [ Příspěvků: 22 ]  Přejít na stránku Předchozí  1, 2

Všechny časy jsou v UTC + 1 hodina


Nemůžete zakládat nová témata v tomto fóru
Nemůžete odpovídat v tomto fóru
Nemůžete upravovat své příspěvky v tomto fóru
Nemůžete mazat své příspěvky v tomto fóru
Nemůžete přikládat soubory v tomto fóru









StahovaniZaSMS Pizza Modena MP3 free download