fastshare
Tomb Raider (2018)
Vypnout statistiky
KATEGORIEPOSLEDNÍ PŘÍSPĚVKYPOSLEDNÍ OZNÁMENÍSTATISTIKY UŽIVATELE
Nick: Anonymous
Příspěvků: 3360
Hodnost: Warman
Varování: 0
---
Právě je 21 lis 2018, 15:08





Všechny časy jsou v UTC + 1 hodina


Pravidla fóra







Odeslat nové téma Odpovědět na téma  [ Příspěvků: 5 ] 
 Tomb Raider (2018) 
Autor Zpráva
Warman
Warman
Uživatelský avatar

Registrován: 31 srp 2015, 17:58
Příspěvky: 2965
Příspěvek Tomb Raider (2018)

Tomb Raider (2018)
Tomb Raider (2018)
Jen registrovaní uživatelé mohou vidět odkazy v code. Přihlaste se nebo zaregistrujte ZDARMA.

Tomb Raider.2018.CZ DABING.720p.BluRay.x264.AC3.5.1
AUDIO - CZ
Jen registrovaní uživatelé mohou vidět odkazy v code. Přihlaste se nebo zaregistrujte ZDARMA.

Tomb Raider (2018)
Tomb Raider (2018)
Jen registrovaní uživatelé mohou vidět odkazy v code. Přihlaste se nebo zaregistrujte ZDARMA.


15 čer 2018, 14:30
Profil
Warman
Warman

Registrován: 26 kvě 2015, 00:50
Příspěvky: 1360
Příspěvek Re: Tomb Raider (2018)

Tomb Raider (2018)

CSFD:

Jen registrovaní uživatelé mohou vidět odkazy v code. Přihlaste se nebo zaregistrujte ZDARMA.


Re: Tomb Raider (2018)

Tomb.Raider.2018.720p.BluRay.x264.DD5.1.CZ
Tomb.Raider.2018.1080p.BluRay.x264.DD5.1.CZ
Tomb.Raider.2018.1080p.BluRay.DTS.REMUX.AVC.DD5.1.CZ


Tomb.Raider.2018.720p.BluRay.x264.DD5.1.CZ
Jazyk: Czech 5,1 448 Kbps , English 5.1 640 Kbps
Subtitles: Czech forced , Czech , English forced , English

iNFO

Jen registrovaní uživatelé mohou vidět odkazy v code. Přihlaste se nebo zaregistrujte ZDARMA.


Re: Tomb Raider (2018)
Jen registrovaní uživatelé mohou vidět odkazy v code. Přihlaste se nebo zaregistrujte ZDARMA.

Jen registrovaní uživatelé mohou vidět odkazy v code. Přihlaste se nebo zaregistrujte ZDARMA.

Přidán záznam na opravu dat 3%.

Tomb.Raider.2018.1080p.BluRay.x264.DD5.1.CZ
Jazyk: Czech 5,1 448 Kbps , English 5.1 640 Kbps
Subtitles: Czech forced , Czech , English forced , English

iNFO

Jen registrovaní uživatelé mohou vidět odkazy v code. Přihlaste se nebo zaregistrujte ZDARMA.


Re: Tomb Raider (2018)
Jen registrovaní uživatelé mohou vidět odkazy v code. Přihlaste se nebo zaregistrujte ZDARMA.

Jen registrovaní uživatelé mohou vidět odkazy v code. Přihlaste se nebo zaregistrujte ZDARMA.

Přidán záznam na opravu dat 3%.

Tomb.Raider.2018.1080p.BluRay.DTS.REMUX.AVC.DD5.1.CZ
Jazyk: Czech 5.1 448 Kbps , English 5.1 DTS 1 509 Kbps
Subtitles: Czech forced , Czech , English forced , English

iNFO

Jen registrovaní uživatelé mohou vidět odkazy v code. Přihlaste se nebo zaregistrujte ZDARMA.


Re: Tomb Raider (2018)
Jen registrovaní uživatelé mohou vidět odkazy v code. Přihlaste se nebo zaregistrujte ZDARMA.

Jen registrovaní uživatelé mohou vidět odkazy v code. Přihlaste se nebo zaregistrujte ZDARMA.

Přidán záznam na opravu dat 3%.


Naposledy upravil browing3006 dne 19 čer 2018, 04:54, celkově upraveno 2

16 čer 2018, 01:04
Profil
Lieutenant
Lieutenant

Registrován: 15 črc 2008, 21:29
Příspěvky: 205
Příspěvek Re: Tomb Raider (2018)

Tomb Raider (2018) [Blu-ray RIP]

Akční / Dobrodružný
Laře Croft (Alicia Vikander) je 21 let a právě zdědila obrovské obchodní impérium. Její otec, bohatý šlechtic a známý dobrodruh, Lord Richard Croft (Dominic West), zmizel beze stopy před sedmi lety, když byla ještě dítě. Od té doby se marně snaží najít nějaký smysl svého života. Když si přečte záhadný vzkaz, který jí otec zanechal, rozhodne se opustit Londýn a vyrazit do neznáma, aby přišla na to, co se jejímu otci doopravdy stalo.

INFO:
Jen registrovaní uživatelé mohou vidět odkazy v code. Přihlaste se nebo zaregistrujte ZDARMA.


Re: Tomb Raider (2018)
________________________________________________________________________________

9790 MB

Video: 1920x800 - AVC/H264 - 23.976 fps - 9 Mbps
Audio: CZ dabing - AC3 5.1 - 448 Kbps
Audio: ENG - DTS 5.1 - 1.5 Mbps
Titulky: forced CZ + ENG
Čas: 1:57:50

Mediainfo
General
Format : Matroska
Format version : Version 4 / Version 2
File size : 9.12 GiB
Duration : 1 h 57 min
Overall bit rate : 11.1 Mb/s
Writing application : Lavf58.3.100
Writing library : Lavf58.3.100
ErrorDetectionType : Per level 1

Video
ID : 1
Format : AVC
Format/Info : Advanced Video Codec
Format profile : [email protected]
Format settings : CABAC / 5 Ref Frames
Format settings, CABAC : Yes
Format settings, RefFrames : 5 frames
Codec ID : V_MPEG4/ISO/AVC
Duration : 1 h 57 min
Bit rate : 9 114 kb/s
Width : 1 920 pixels
Height : 800 pixels
Display aspect ratio : 2.40:1
Frame rate mode : Constant
Frame rate : 23.976 (24000/1001) FPS
Color space : YUV
Chroma subsampling : 4:2:0
Bit depth : 8 bits
Scan type : Progressive
Bits/(Pixel*Frame) : 0.247
Stream size : 7.33 GiB (80%)
Writing library : x264 core 155 r2901 7d0ff22
Encoding settings : cabac=1 / ref=5 / deblock=1:0:0 / analyse=0x3:0x133 / me=umh / subme=7 / psy=1 / psy_rd=1.00:0.00 / mixed_ref=1 / me_range=16 / chroma_me=1 / trellis=1 / 8x8dct=1 / cqm=0 / deadzone=21,11 / fast_pskip=0 / chroma_qp_offset=-2 / threads=24 / lookahead_threads=4 / sliced_threads=0 / nr=0 / decimate=1 / interlaced=0 / bluray_compat=0 / constrained_intra=0 / bframes=3 / b_pyramid=2 / b_adapt=1 / b_bias=0 / direct=1 / weightb=1 / open_gop=0 / weightp=2 / keyint=250 / keyint_min=23 / scenecut=40 / intra_refresh=0 / rc_lookahead=40 / rc=2pass / mbtree=1 / bitrate=9114 / ratetol=1.0 / qcomp=0.60 / qpmin=0 / qpmax=69 / qpstep=4 / cplxblur=20.0 / qblur=0.5 / ip_ratio=1.40 / aq=1:1.00
Default : Yes
Forced : No

Audio #1
ID : 2
Format : AC-3
Format/Info : Audio Coding 3
Codec ID : A_AC3
Duration : 1 h 57 min
Bit rate mode : Constant
Bit rate : 448 kb/s
Channel(s) : 6 channels
Channel positions : Front: L C R, Side: L R, LFE
Sampling rate : 48.0 kHz
Frame rate : 31.250 FPS (1536 SPF)
Bit depth : 16 bits
Compression mode : Lossy
Stream size : 378 MiB (4%)
Language : Czech
Service kind : Complete Main
Default : Yes
Forced : No

Audio #2
ID : 3
Format : DTS
Format/Info : Digital Theater Systems
Codec ID : A_DTS
Duration : 1 h 57 min
Bit rate mode : Constant
Bit rate : 1 509 kb/s
Channel(s) : 6 channels
Channel positions : Front: L C R, Side: L R, LFE
Sampling rate : 48.0 kHz
Frame rate : 93.750 FPS (512 SPF)
Bit depth : 24 bits
Compression mode : Lossy
Stream size : 1.24 GiB (14%)
Language : English
Default : No
Forced : No

Text #1
ID : 4
Format : UTF-8
Codec ID : S_TEXT/UTF8
Codec ID/Info : UTF-8 Plain Text
Duration : 1 h 49 min
Title : forced
Writing library : Lavc58.9.100 srt
Language : Czech
Default : Yes
Forced : No

Text #2
ID : 5
Format : UTF-8
Codec ID : S_TEXT/UTF8
Codec ID/Info : UTF-8 Plain Text
Duration : 1 h 57 min
Writing library : Lavc58.9.100 srt
Language : English
Default : No
Forced : No

FullHD - AVC
Jen registrovaní uživatelé mohou vidět odkazy v code. Přihlaste se nebo zaregistrujte ZDARMA.


4103 MB

Video: 1920x800 - HEVC/H265 - 23.976 fps - 4 Mbps
Audio: CZ dabing - AC3 5.1 - 448 Kbps
Audio: ENG - HE-AAC 5.1 - 320 Mbps
Titulky: forced CZ + ENG
Čas: 1:57:50

Mediainfo
General
Format : Matroska
Format version : Version 4 / Version 2
File size : 3.82 GiB
Duration : 1 h 57 min
Overall bit rate : 4 642 kb/s
Writing application : Lavf58.3.100
Writing library : Lavf58.3.100
ErrorDetectionType : Per level 1

Video
ID : 1
Format : HEVC
Format/Info : High Efficiency Video Coding
Format profile : [email protected]@Main
Codec ID : V_MPEGH/ISO/HEVC
Duration : 1 h 57 min
Width : 1 920 pixels
Height : 800 pixels
Display aspect ratio : 2.40:1
Frame rate mode : Constant
Frame rate : 23.976 (24000/1001) FPS
Color space : YUV
Chroma subsampling : 4:2:0
Bit depth : 8 bits
Writing library : x265 2.6+13-6b079854e56e:[Windows][GCC 7.2.0][64 bit] 8bit
Encoding settings : cpuid=1105919 / frame-threads=3 / numa-pools=8 / wpp / no-pmode / no-pme / no-psnr / no-ssim / log-level=2 / input-csp=1 / input-res=1920x800 / interlace=0 / total-frames=0 / level-idc=0 / high-tier=1 / uhd-bd=0 / ref=4 / no-allow-non-conformance / no-repeat-headers / annexb / no-aud / no-hrd / info / hash=0 / no-temporal-layers / open-gop / min-keyint=120 / keyint=240 / gop-lookahead=0 / bframes=4 / b-adapt=2 / b-pyramid / bframe-bias=0 / rc-lookahead=48 / lookahead-slices=5 / scenecut=40 / no-intra-refresh / ctu=64 / min-cu-size=8 / no-rect / no-amp / max-tu-size=32 / tu-inter-depth=1 / tu-intra-depth=1 / limit-tu=0 / rdoq-level=2 / dynamic-rd=0.00 / no-ssim-rd / signhide / no-tskip / nr-intra=0 / nr-inter=0 / no-constrained-intra / strong-intra-smoothing / max-merge=2 / limit-refs=0 / limit-modes / me=1 / subme=2 / merange=57 / temporal-mvp / weightp / no-weightb / no-analyze-src-pics / deblock=-1:-1 / sao / no-sao-non-deblock / rd=3 / early-skip / no-rskip / no-fast-intra / no-tskip-fast / no-cu-lossless / no-b-intra / no-splitrd-skip / rdpenalty=0 / psy-rd=0.25 / psy-rdoq=1.00 / no-rd-refine / analysis-reuse-mode=0 / no-lossless / cbqpoffs=0 / crqpoffs=0 / rc=abr / bitrate=4000 / qcomp=0.60 / qpstep=4 / stats-write=0 / stats-read=0 / ipratio=2.00 / pbratio=1.30 / aq-mode=1 / aq-strength=1.00 / cutree / zone-count=1 / zones: / start-frame=162078 / end-frame=170000 / bitrate-factor=0.100000 / no-strict-cbr / qg-size=32 / no-rc-grain / qpmax=69 / qpmin=0 / no-const-vbv / sar=1 / overscan=0 / videoformat=5 / range=0 / colorprim=1 / transfer=1 / colormatrix=1 / chromaloc=0 / display-window=0 / max-cll=0,0 / min-luma=0 / max-luma=255 / log2-max-poc-lsb=8 / vui-timing-info / vui-hrd-info / slices=1 / no-opt-qp-pps / no-opt-ref-list-length-pps / no-multi-pass-opt-rps / scenecut-bias=0.05 / no-opt-cu-delta-qp / no-aq-motion / no-hdr / no-hdr-opt / no-dhdr10-opt / analysis-reuse-level=5 / scale-factor=0 / refine-intra=0 / refine-inter=0 / refine-mv=0 / no-limit-sao / ctu-info=0 / no-lowpass-dct / refine-mv-type=0 / copy-pic=1
Default : Yes
Forced : No
Color range : Limited
Color primaries : BT.709
Transfer characteristics : BT.709
Matrix coefficients : BT.709

Audio #1
ID : 2
Format : AC-3
Format/Info : Audio Coding 3
Codec ID : A_AC3
Duration : 1 h 57 min
Bit rate mode : Constant
Bit rate : 448 kb/s
Channel(s) : 6 channels
Channel positions : Front: L C R, Side: L R, LFE
Sampling rate : 48.0 kHz
Frame rate : 31.250 FPS (1536 SPF)
Bit depth : 16 bits
Compression mode : Lossy
Stream size : 378 MiB (10%)
Language : Czech
Service kind : Complete Main
Default : Yes
Forced : No

Audio #2
ID : 3
Format : AAC
Format/Info : Advanced Audio Codec
Format profile : HE-AAC / LC
Format settings : Explicit
Codec ID : A_AAC-2
Duration : 1 h 57 min
Channel(s) : 6 channels
Channel positions : Front: L C R, Side: L R, LFE
Sampling rate : 48.0 kHz / 24.0 kHz
Frame rate : 23.438 FPS (1024 SPF)
Compression mode : Lossy
Language : English
Default : No
Forced : No

Text #1
ID : 4
Format : UTF-8
Codec ID : S_TEXT/UTF8
Codec ID/Info : UTF-8 Plain Text
Duration : 1 h 49 min
Title : forced
Writing library : Lavc58.9.100 srt
Language : Czech
Default : Yes
Forced : No

Text #2
ID : 5
Format : UTF-8
Codec ID : S_TEXT/UTF8
Codec ID/Info : UTF-8 Plain Text
Duration : 1 h 57 min
Writing library : Lavc58.9.100 srt
Language : English
Default : No
Forced : No

FullHD - HEVC
Jen registrovaní uživatelé mohou vidět odkazy v code. Přihlaste se nebo zaregistrujte ZDARMA.

________________________________________________________________________________


16 čer 2018, 11:10
Profil
Master Sergant
Master Sergant

Registrován: 20 lis 2008, 18:20
Příspěvky: 152
Příspěvek Re: Tomb Raider (2018)

Tomb Raider (2018) 2160p_4K UHD HDR_x265-HEVC_7.1 TrueHd Atmos ENG_5.1CZECH

Jen registrovaní uživatelé mohou vidět odkazy v code. Přihlaste se nebo zaregistrujte ZDARMA.



Re: Tomb Raider (2018)


Jen registrovaní uživatelé mohou vidět odkazy v code. Přihlaste se nebo zaregistrujte ZDARMA.


)..(

Jen registrovaní uživatelé mohou vidět odkazy v code. Přihlaste se nebo zaregistrujte ZDARMA.


)..(

Jen registrovaní uživatelé mohou vidět odkazy v code. Přihlaste se nebo zaregistrujte ZDARMA.


19 čer 2018, 17:09
Profil
Colonel
Colonel

Registrován: 30 pro 2007, 17:16
Příspěvky: 367
Příspěvek Re: Tomb Raider (2018)

Tomb Raider (2018)

Re: Tomb Raider (2018)

Jen registrovaní uživatelé mohou vidět odkazy v code. Přihlaste se nebo zaregistrujte ZDARMA.



Video/Zdroj: Bluray 1080p
Jazyk: CZ 5.1ch AC-3, EN 5.1ch AC-3
Titulky: CZ, EN


Citace:
Formát : Matroska
Format_Version : Version 4 / Version 2
Velikost souboru : 13,2 GiB
Duration/String : 1h 57mn
Celkový BitRate : 16,1 Mbps

Video
Formát : AVC
Format_Profile : [email protected]
Duration/String : 1h 57mn
Bit rate : 15,0 Mbps
Šířka : 1 920pixely
Výška : 800pixely
Poměr stran : 2,40:1
Frame rate : 23,976 fps
ColorSpace : YUV
ChromaSubsampling : 4:2:0
BitDepth/String : 8 bits
ScanType/String : Progressive
Bits/(Pixel*Frame) : 0.407
StreamSize/String : 12,1 GiB (91%)

Audio #1
Formát : AC-3
Duration/String : 1h 57mn
Bit rate : 640 Kbps
Kanál(y) : 6 kanály
Channel positions : Front: L C R, Side: L R, LFE
Sampling rate : 48,0 KHz
BitDepth/String : 16 bits
StreamSize/String : 539 MiB (4%)
Jazyk : English
Default : Ne
Forced : Ne

Audio #2
Formát : AC-3
Duration/String : 1h 57mn
Bit rate : 448 Kbps
Kanál(y) : 6 kanály
Channel positions : Front: L C R, Side: L R, LFE
Sampling rate : 48,0 KHz
BitDepth/String : 16 bits
StreamSize/String : 378 MiB (3%)
Jazyk : Czech
Default : Ano
Forced : Ano

Text #1
Formát : UTF-8
Titul : Czech Forced
Jazyk : Czech
Default : Ano
Forced : Ano

Text #2
Formát : UTF-8
Titul : Czech Full
Jazyk : Czech
Default : Ne
Forced : Ne

Text #3
Formát : UTF-8
Titul : Forced
Jazyk : English
Default : Ne
Forced : Ne

Text #4
Formát : UTF-8
Jazyk : English
Default : Ne
Forced : Ne


Fastshare
Jen registrovaní uživatelé mohou vidět odkazy v code. Přihlaste se nebo zaregistrujte ZDARMA.


-------------------------------------------------------------------------------------------------------------------------------------------------------------------------------------------------------------------------------


Video/Zdoj: BluRay UHD 2160p
Audio: CZ 5.1ch AC-3, EN 7.1ch TrueHD / Dolby Atmos, EN 5.1ch AC-3
Titulky: CZ, EN


Citace:
Format : Matroska
Format version : Version 4 / Version 2
File size : 46.6 GiB
Duration : 1 h 57 min
Overall bit rate mode : Variable
Overall bit rate : 56.6 Mb/s

Video
Format : HEVC
Format profile : Main [email protected]@High
Codec ID : V_MPEGH/ISO/HEVC
Duration : 1 h 57 min
Bit rate : 52.4 Mb/s
Width : 3 840 pixels
Height : 2 160 pixels
Display aspect ratio : 16:9
Frame rate mode : Constant
Frame rate : 23.976 (24000/1001) FPS
Color space : YUV
Chroma subsampling : 4:2:0 (Type 2)
Bit depth : 10 bits
Bits/(Pixel*Frame) : 0.264
Stream size : 43.1 GiB (93%)

Audio #1
Format : AC-3
Duration : 1 h 57 min
Bit rate mode : Constant
Bit rate : 448 kb/s
Channel(s) : 6 channels
Channel positions : Front: L C R, Side: L R, LFE
Sampling rate : 48.0 kHz
Frame rate : 31.250 FPS (1536 SPF)
Bit depth : 16 bits
Compression mode : Lossy
Stream size : 378 MiB (1%)
Language : Czech
Service kind : Complete Main
Default : Yes
Forced : No

Audio #2
Format : TrueHD
Format profile : TrueHD+Atmos / TrueHD
Duration : 1 h 57 min
Bit rate mode : Variable
Bit rate : 3 214 kb/s
Maximum bit rate : 5 520 kb/s
Channel(s) : Object Based / 8 channels
Channel positions : Object Based / Front: L C R, Side: L R, Back: L R, LFE
Sampling rate : / 48.0 kHz
Frame rate : 1 200.000 FPS (40 SPF)
Compression mode : Lossless
Stream size : 2.64 GiB (6%)
Language : English
Default : No
Forced : No

Audio #3
Format : AC-3
Duration : 1 h 57 min
Bit rate mode : Constant
Bit rate : 448 kb/s
Channel(s) : 6 channels
Channel positions : Front: L C R, Side: L R, LFE
Sampling rate : 48.0 kHz
Frame rate : 31.250 FPS (1536 SPF)
Bit depth : 16 bits
Compression mode : Lossy
Stream size : 378 MiB (1%)
Language : English
Service kind : Complete Main
Default : No
Forced : No

Text #1
Format : UTF-8
Language : Czech
Default : Yes
Forced : No

Text #2
Format : UTF-8
Language : Czech
Default : No
Forced : No

Text #3
Format : UTF-8
Language : English
Default : No
Forced : No

Text #4
Format : UTF-8
Language : English
Default : No
Forced : No


Fastshare
Jen registrovaní uživatelé mohou vidět odkazy v code. Přihlaste se nebo zaregistrujte ZDARMA.


Balené bez kompresie. Bez hesla. Pridaný záznam pre opravu dát 5%.


06 črc 2018, 09:14
Profil
Zobrazit příspěvky za předchozí:  Seřadit podle  
Odeslat nové téma Odpovědět na téma  [ Příspěvků: 5 ] 

Všechny časy jsou v UTC + 1 hodina


Nemůžete zakládat nová témata v tomto fóru
Nemůžete odpovídat v tomto fóru
Nemůžete upravovat své příspěvky v tomto fóru
Nemůžete mazat své příspěvky v tomto fóru
Nemůžete přikládat soubory v tomto fóru









StahovaniZaSMS Pizza Modena MP3 free download