fastshare
Žlutí ptáci / The Yellow Birds (2017)
Vypnout statistiky
KATEGORIEPOSLEDNÍ PŘÍSPĚVKYPOSLEDNÍ OZNÁMENÍSTATISTIKY UŽIVATELE
Nick: Anonymous
Příspěvků: 3360
Hodnost: Warman
Varování: 0
---
Právě je 21 lis 2018, 15:01





Všechny časy jsou v UTC + 1 hodina


Pravidla fóra







Odeslat nové téma Odpovědět na téma  [ Příspěvků: 2 ] 
 Žlutí ptáci / The Yellow Birds (2017) 
Autor Zpráva
Warman
Warman

Registrován: 26 kvě 2015, 00:50
Příspěvky: 1360
Příspěvek Žlutí ptáci / The Yellow Birds (2017)

Žlutí ptáci / The Yellow Birds (2017)

CSFD:

Jen registrovaní uživatelé mohou vidět odkazy v code. Přihlaste se nebo zaregistrujte ZDARMA.


Žlutí ptáci / The Yellow Birds (2017)

The.Yellow.Birds.2017.720p.WEB-DL.x264.CZ
The.Yellow.Birds.2017.1080p.WEB-DL.x264.CZ


The.Yellow.Birds.2017.720p.WEB-DL.x264.CZ
Jazyk: Czech 2.0 224 Kbps , English 5.1 640 Kbps
Subtitles: Czech forced , Czech , English

iNFO

Jen registrovaní uživatelé mohou vidět odkazy v code. Přihlaste se nebo zaregistrujte ZDARMA.


Žlutí ptáci / The Yellow Birds (2017)
Jen registrovaní uživatelé mohou vidět odkazy v code. Přihlaste se nebo zaregistrujte ZDARMA.

Jen registrovaní uživatelé mohou vidět odkazy v code. Přihlaste se nebo zaregistrujte ZDARMA.

Přidán záznam na opravu dat 3%.

The.Yellow.Birds.2017.1080p.WEB-DL.x264.CZ
Jazyk: Czech 2.0 224 Kbps , English 5.1 640 Kbps
Subtitles: Czech forced , Czech , English

iNFO

Jen registrovaní uživatelé mohou vidět odkazy v code. Přihlaste se nebo zaregistrujte ZDARMA.


Žlutí ptáci / The Yellow Birds (2017)
Jen registrovaní uživatelé mohou vidět odkazy v code. Přihlaste se nebo zaregistrujte ZDARMA.

Jen registrovaní uživatelé mohou vidět odkazy v code. Přihlaste se nebo zaregistrujte ZDARMA.

Přidán záznam na opravu dat 3%.


25 čer 2018, 05:14
Profil
Colonel
Colonel

Registrován: 30 pro 2007, 17:16
Příspěvky: 367
Příspěvek Re: Žlutí ptáci / The Yellow Birds (2017)

Žlutí ptáci / The Yellow Birds (2017)
Video/Zdroj: WEB-DL
Audio: CZ AC-3 2ch, EN E-AC-3 5.1ch
Titulky: CZ forced, CZ, EN

Re: Žlutí ptáci / The Yellow Birds (2017)

Jen registrovaní uživatelé mohou vidět odkazy v code. Přihlaste se nebo zaregistrujte ZDARMA.


Citace:
Format : Matroska
Format version : Version 4 / Version 2
File size : 9.29 GiB
Duration : 1 h 35 min
Overall bit rate : 14.0 Mb/s

Video
Format : AVC
Format profile : [email protected]
Duration : 1 h 35 min
Bit rate : 12.8 Mb/s
Width : 1 920 pixels
Height : 800 pixels
Display aspect ratio : 2.40:1
Frame rate mode : Constant
Frame rate : 23.976 (24000/1001) FPS
Color space : YUV
Chroma subsampling : 4:2:0
Bit depth : 8 bits
Scan type : Progressive
Bits/(Pixel*Frame) : 0.349
Stream size : 8.53 GiB (92%)

Audio #1
Format : E-AC-3
Format/Info : Enhanced Audio Coding 3
Duration : 1 h 35 min
Bit rate mode : Constant
Bit rate : 640 kb/s
Channel(s) : 6 channels
Channel positions : Front: L C R, Side: L R, LFE
Sampling rate : 48.0 kHz
Frame rate : 187.500 FPS (256 SPF)
Compression mode : Lossy
Stream size : 435 MiB (5%)
Language : English
Default : No
Forced : No

Audio #2
Format : AC-3
Format/Info : Audio Coding 3
Duration : 1 h 35 min
Bit rate mode : Constant
Bit rate : 224 kb/s
Channel(s) : 2 channels
Channel positions : Front: L R
Sampling rate : 48.0 kHz
Frame rate : 31.250 FPS (1536 SPF)
Bit depth : 16 bits
Compression mode : Lossy
Stream size : 152 MiB (2%)
Language : Czech
Default : Yes
Forced : Yes

Text #1
Format : UTF-8
Language : Czech
Default : Yes
Forced : Yes

Text #2
Format : UTF-8
Language : Czech
Default : No
Forced : No

Text #3
Format : UTF-8
Language : English
Default : No
Forced : No


Fastshare
Jen registrovaní uživatelé mohou vidět odkazy v code. Přihlaste se nebo zaregistrujte ZDARMA.


Bez hesla. Balené bez kompresie. Pridaný záznam pre opravu dát 5%.


30 črc 2018, 14:45
Profil
Zobrazit příspěvky za předchozí:  Seřadit podle  
Odeslat nové téma Odpovědět na téma  [ Příspěvků: 2 ] 

Všechny časy jsou v UTC + 1 hodina


Nemůžete zakládat nová témata v tomto fóru
Nemůžete odpovídat v tomto fóru
Nemůžete upravovat své příspěvky v tomto fóru
Nemůžete mazat své příspěvky v tomto fóru
Nemůžete přikládat soubory v tomto fóru









StahovaniZaSMS Pizza Modena MP3 free download