fastshare
Akta Pentagon: Skrytá válka / The Post (2017)
Vypnout statistiky
KATEGORIEPOSLEDNÍ PŘÍSPĚVKYPOSLEDNÍ OZNÁMENÍSTATISTIKY UŽIVATELE
Nick: Anonymous
Příspěvků: 3360
Hodnost: Warman
Varování: 0
---
Právě je 21 lis 2018, 14:57





Všechny časy jsou v UTC + 1 hodina


Pravidla fóra







Odeslat nové téma Odpovědět na téma  [ Příspěvků: 3 ] 
 Akta Pentagon: Skrytá válka / The Post (2017) 
Autor Zpráva
Warman
Warman

Registrován: 26 kvě 2015, 00:50
Příspěvky: 1360
Příspěvek Akta Pentagon: Skrytá válka / The Post (2017)

Akta Pentagon: Skrytá válka / The Post (2017)

CSFD:

Jen registrovaní uživatelé mohou vidět odkazy v code. Přihlaste se nebo zaregistrujte ZDARMA.


Akta Pentagon: Skrytá válka / The Post (2017)

The.Post.2017.720p.BluRay.x264.CZ
The.Post.2017.1080p.BluRay.x264.CZ


The.The.Post.2017.720p.BluRay.x264.CZ
Jazyk: Czech 2.0 224 Kbps , English 5.1 640 Kbps
Subtitles: Czech , English

iNFO

Jen registrovaní uživatelé mohou vidět odkazy v code. Přihlaste se nebo zaregistrujte ZDARMA.


Akta Pentagon: Skrytá válka / The Post (2017)
Jen registrovaní uživatelé mohou vidět odkazy v code. Přihlaste se nebo zaregistrujte ZDARMA.

Jen registrovaní uživatelé mohou vidět odkazy v code. Přihlaste se nebo zaregistrujte ZDARMA.

Přidán záznam na opravu dat 3%.

The.Post.2017.1080p.BluRay.x264.CZ
Jazyk: Czech 2.0 224 Kbps , English 5.1 640 Kbps
Subtitles: Czech , English

iNFO

Jen registrovaní uživatelé mohou vidět odkazy v code. Přihlaste se nebo zaregistrujte ZDARMA.


Akta Pentagon: Skrytá válka / The Post (2017)
Jen registrovaní uživatelé mohou vidět odkazy v code. Přihlaste se nebo zaregistrujte ZDARMA.

Jen registrovaní uživatelé mohou vidět odkazy v code. Přihlaste se nebo zaregistrujte ZDARMA.

Přidán záznam na opravu dat 3%.


Naposledy upravil browing3006 dne 30 čer 2018, 21:53, celkově upraveno 1

30 čer 2018, 05:35
Profil
Lieutenant
Lieutenant

Registrován: 15 črc 2008, 21:29
Příspěvky: 205
Příspěvek Re: Akta Pentagon: Skrytá válka / The Post (2017)

Akta Pentagon: Skrytá válka / The Post (2017) [BR-RIP]

(Steven Spielberg) - Drama / Thriller / Životopisný / Historický
Film líčí příběh novinářů deníků The Washington Post a The New York Times, kteří zveřejnili tajnou zprávu označovanou jako Pentagon Papers o angažovanosti americké vlády během války ve Vietnamu. Snaha o ututlání skutečností trvající čtyři prezidentská období donutila první americkou vydavatelku Kate Graham (Meryl Streep) a ambiciózního šéfredaktora Bena Bradleeho (Tom Hanks) z deníku The Washington Post vyhlásit vládě bezprecedentní válku o zveřejnění tajné vládní zprávy Pentagon Papers.

INFO:
Jen registrovaní uživatelé mohou vidět odkazy v code. Přihlaste se nebo zaregistrujte ZDARMA.


Re: Akta Pentagon: Skrytá válka / The Post (2017)
________________________________________________________________________________

9591 MB

Video: 1920x1040 - AVC/H264 - 23.976 fps - 9.2 Mbps
Audio: CZ dabing - AC3 2.0 - 224 Kbps
Audio: ENG - DTS 5.1 - 1.5 Mbps
Titulky: ENG
Čas: 1:55:59

MediaInfo
General
Format : Matroska
Format version : Version 4 / Version 2
File size : 8.93 GiB
Duration : 1 h 55 min
Overall bit rate : 11.0 Mb/s
Writing application : Lavf57.83.100
Writing library : Lavf57.83.100
ErrorDetectionType : Per level 1

Video
ID : 1
Format : AVC
Format/Info : Advanced Video Codec
Format profile : [email protected]
Format settings : CABAC / 4 Ref Frames
Format settings, CABAC : Yes
Format settings, RefFrames : 4 frames
Codec ID : V_MPEG4/ISO/AVC
Duration : 1 h 55 min
Bit rate : 9 285 kb/s
Width : 1 920 pixels
Height : 1 040 pixels
Display aspect ratio : 1.85:1
Frame rate mode : Constant
Frame rate : 23.976 (24000/1001) FPS
Color space : YUV
Chroma subsampling : 4:2:0
Bit depth : 8 bits
Scan type : Progressive
Bits/(Pixel*Frame) : 0.194
Stream size : 7.35 GiB (82%)
Writing library : x264 core 155 r2901 7d0ff22
Encoding settings : cabac=1 / ref=4 / deblock=1:0:0 / analyse=0x3:0x133 / me=umh / subme=7 / psy=1 / psy_rd=1.00:0.00 / mixed_ref=1 / me_range=16 / chroma_me=1 / trellis=1 / 8x8dct=1 / cqm=0 / deadzone=21,11 / fast_pskip=0 / chroma_qp_offset=-2 / threads=24 / lookahead_threads=4 / sliced_threads=0 / nr=0 / decimate=1 / interlaced=0 / bluray_compat=0 / constrained_intra=0 / bframes=3 / b_pyramid=2 / b_adapt=1 / b_bias=0 / direct=1 / weightb=1 / open_gop=0 / weightp=2 / keyint=250 / keyint_min=23 / scenecut=40 / intra_refresh=0 / rc_lookahead=40 / rc=2pass / mbtree=1 / bitrate=9285 / ratetol=1.0 / qcomp=0.60 / qpmin=0 / qpmax=69 / qpstep=4 / cplxblur=20.0 / qblur=0.5 / ip_ratio=1.40 / aq=1:1.00
Default : Yes
Forced : No

Audio #1
ID : 2
Format : AC-3
Format/Info : Audio Coding 3
Codec ID : A_AC3
Duration : 1 h 55 min
Bit rate mode : Constant
Bit rate : 224 kb/s
Channel(s) : 2 channels
Channel positions : Front: L R
Sampling rate : 48.0 kHz
Frame rate : 31.250 FPS (1536 SPF)
Bit depth : 16 bits
Compression mode : Lossy
Stream size : 186 MiB (2%)
Language : Czech
Service kind : Complete Main
Default : Yes
Forced : No

Audio #2
ID : 3
Format : DTS
Format/Info : Digital Theater Systems
Format profile : ES Matrix / Core
Codec ID : A_DTS
Duration : 1 h 55 min
Bit rate mode : Constant
Bit rate : 1 509 kb/s
Channel(s) : 7 channels / 6 channels
Channel positions : Front: L C R, Side: L R, Back: C, LFE / Front: L C R, Side: L R, LFE
Sampling rate : 48.0 kHz
Frame rate : 93.750 FPS (512 SPF)
Bit depth : 24 bits
Compression mode : Lossy
Stream size : 1.22 GiB (14%)
Language : English
Default : No
Forced : No

Text
ID : 4
Format : UTF-8
Codec ID : S_TEXT/UTF8
Codec ID/Info : UTF-8 Plain Text
Duration : 1 h 49 min
Writing library : Lavc57.107.100 srt
Language : English
Default : Yes
Forced : No

FullHD - AVC
Jen registrovaní uživatelé mohou vidět odkazy v code. Přihlaste se nebo zaregistrujte ZDARMA.

________________________________________________________________________________


30 čer 2018, 09:27
Profil
Colonel 2 nd class
Colonel 2 nd class

Registrován: 09 bře 2009, 18:27
Příspěvky: 438
Příspěvek Re: Akta Pentagon: Skrytá válka / The Post (2017)

The.Post.2017.1080p.BluRay.x264-GECKOS CZ,ENG Dabing




Cover:

Re: Akta Pentagon: Skrytá válka / The Post (2017)

Info:

Jazyk: Český, Anglický
Titulky: -


Csfd:
Jen registrovaní uživatelé mohou vidět odkazy v code. Přihlaste se nebo zaregistrujte ZDARMA.

Info:
Jen registrovaní uživatelé mohou vidět odkazy v code. Přihlaste se nebo zaregistrujte ZDARMA.




Download:
Jen registrovaní uživatelé mohou vidět odkazy v code. Přihlaste se nebo zaregistrujte ZDARMA.


The.Post.2017.720p.BluRay.x264-GECKOS CZ,ENG Dabing

Info:

Jazyk: Český, Anglický
Titulky: -


Info:
Jen registrovaní uživatelé mohou vidět odkazy v code. Přihlaste se nebo zaregistrujte ZDARMA.

Download:
Jen registrovaní uživatelé mohou vidět odkazy v code. Přihlaste se nebo zaregistrujte ZDARMA.


01 črc 2018, 20:09
Profil
Zobrazit příspěvky za předchozí:  Seřadit podle  
Odeslat nové téma Odpovědět na téma  [ Příspěvků: 3 ] 

Všechny časy jsou v UTC + 1 hodina


Nemůžete zakládat nová témata v tomto fóru
Nemůžete odpovídat v tomto fóru
Nemůžete upravovat své příspěvky v tomto fóru
Nemůžete mazat své příspěvky v tomto fóru
Nemůžete přikládat soubory v tomto fóru









StahovaniZaSMS Pizza Modena MP3 free download