fastshare
Ready Player One: Hra sa začína / Ready Player One (2018)
Vypnout statistiky
KATEGORIEPOSLEDNÍ PŘÍSPĚVKYPOSLEDNÍ OZNÁMENÍSTATISTIKY UŽIVATELE
Nick: Anonymous
Příspěvků: 3360
Hodnost: Warman
Varování: 0
---
Právě je 21 lis 2018, 15:34





Všechny časy jsou v UTC + 1 hodina


Pravidla fóra







Odeslat nové téma Odpovědět na téma  [ Příspěvků: 7 ] 
 Ready Player One: Hra sa začína / Ready Player One (2018) 
Autor Zpráva
Warman
Warman

Registrován: 26 kvě 2015, 00:50
Příspěvky: 1360
Příspěvek Re: Ready Player One: Hra sa začína / Ready Player One (2018

Ready Player One: Hra začíná / Ready Player One (2018)

CSFD:

Jen registrovaní uživatelé mohou vidět odkazy v code. Přihlaste se nebo zaregistrujte ZDARMA.


Re: Ready Player One: Hra sa začína / Ready Player One (2018

Ready.Player.One.2018.720p.BluRay.x264.CZ
Ready.Player.One.2018.1080p.BluRay.x264.CZ
Ready.Player.One.2018.1080p.BluRay.DTS.x264.CZ


Ready.Player.One.2018.720p.BluRay.x264.CZ
Jazyk: Czech 2.0 192 Kbps , English 5.1 640 Kbps
Subtitles: Czech forced , Czech , English

iNFO

Jen registrovaní uživatelé mohou vidět odkazy v code. Přihlaste se nebo zaregistrujte ZDARMA.


Re: Ready Player One: Hra sa začína / Ready Player One (2018
Jen registrovaní uživatelé mohou vidět odkazy v code. Přihlaste se nebo zaregistrujte ZDARMA.

Jen registrovaní uživatelé mohou vidět odkazy v code. Přihlaste se nebo zaregistrujte ZDARMA.

Přidán záznam na opravu dat 3%.

Ready.Player.One.2018.1080p.BluRay.x264.CZ
Jazyk: Czech 2.0 192 Kbps , English 5.1 640 Kbps
Subtitles: Czech forced , Czech , English

iNFO

Jen registrovaní uživatelé mohou vidět odkazy v code. Přihlaste se nebo zaregistrujte ZDARMA.


Re: Ready Player One: Hra sa začína / Ready Player One (2018
Jen registrovaní uživatelé mohou vidět odkazy v code. Přihlaste se nebo zaregistrujte ZDARMA.

Jen registrovaní uživatelé mohou vidět odkazy v code. Přihlaste se nebo zaregistrujte ZDARMA.

Přidán záznam na opravu dat 3%.
Ready.Player.One.2018.1080p.BluRay.DTS.x264.CZ
Jazyk: Czech 2.0 192 Kbps , English 5.1 DTS 1 509 Kbps
Subtitles: Czech forced , Czech , English

iNFO

Jen registrovaní uživatelé mohou vidět odkazy v code. Přihlaste se nebo zaregistrujte ZDARMA.


Re: Ready Player One: Hra sa začína / Ready Player One (2018
Jen registrovaní uživatelé mohou vidět odkazy v code. Přihlaste se nebo zaregistrujte ZDARMA.

Jen registrovaní uživatelé mohou vidět odkazy v code. Přihlaste se nebo zaregistrujte ZDARMA.

Přidán záznam na opravu dat 3%.


Naposledy upravil browing3006 dne 08 črc 2018, 16:22, celkově upraveno 2

07 črc 2018, 04:57
Profil
Lieutenant
Lieutenant

Registrován: 15 črc 2008, 21:29
Příspěvky: 205
Příspěvek Re: Ready Player One: Hra sa začína / Ready Player One (2018

Ready Player One: Hra začíná / Ready Player One (2018) [Blu-ray RIP]

Akční / Sci-Fi / Dobrodružný
Děj filmu legendárního režiséra Stevena Spielberga je zasazen do roku 2045, kdy se svět ocitá na pokraji chaosu a kolapsu. Lidé však nalezli spásu v OASIS, rozsáhlém světě virtuální reality, který vytvořil geniální a excentrický James Halliday (Mark Rylance). Když Halliday zemře, odkáže své nesmírné bohatství prvnímu člověku, který najde Velikonoční vajíčko ukryté někde v OASIS. Odstartuje tak zběsilý závod, který pohltí celý svět. Když se k závodu o nalezení Velikonočního vajíčka rozhodne přidat nenápadný mladý hrdina Wade Watts (Tye Sheridan), je vržen do šílené, realitě na hony vzdálené honby za pokladem ve fantaskním světě mystérií, nečekaných objevů a nebezpečí.

INFO:
Jen registrovaní uživatelé mohou vidět odkazy v code. Přihlaste se nebo zaregistrujte ZDARMA.


Re: Ready Player One: Hra sa začína / Ready Player One (2018
________________________________________________________________________________

10806 MB

Video: 1920x808 - AVC/H264 - 23.976 fps - 8.5 Mbps
Audio 1: CZ dabing - AC3 2.0 - 224 Kbps
Audio 2: ENG - DTS 5.1 - 1.5 Mbps
Titulky: forced CZ + CZ + ENG
Čas: 2:19:58

MediaInfo
General
Format : Matroska
Format version : Version 4 / Version 2
File size : 10.1 GiB
Duration : 2 h 19 min
Overall bit rate : 10.3 Mb/s
Writing application : Lavf57.83.100
Writing library : Lavf57.83.100
ErrorDetectionType : Per level 1

Video
ID : 1
Format : AVC
Format/Info : Advanced Video Codec
Format profile : [email protected]
Format settings : CABAC / 5 Ref Frames
Format settings, CABAC : Yes
Format settings, RefFrames : 5 frames
Codec ID : V_MPEG4/ISO/AVC
Duration : 2 h 19 min
Bit rate : 8 554 kb/s
Width : 1 920 pixels
Height : 808 pixels
Display aspect ratio : 2.40:1
Frame rate mode : Constant
Frame rate : 23.976 (24000/1001) FPS
Color space : YUV
Chroma subsampling : 4:2:0
Bit depth : 8 bits
Scan type : Progressive
Bits/(Pixel*Frame) : 0.230
Stream size : 8.17 GiB (81%)
Writing library : x264 core 155 r2901 7d0ff22
Encoding settings : cabac=1 / ref=5 / deblock=1:-3:-3 / analyse=0x3:0x133 / me=umh / subme=8 / psy=1 / psy_rd=1.00:0.00 / mixed_ref=1 / me_range=16 / chroma_me=1 / trellis=1 / 8x8dct=1 / cqm=0 / deadzone=21,11 / fast_pskip=0 / chroma_qp_offset=-2 / threads=25 / lookahead_threads=4 / sliced_threads=0 / nr=0 / decimate=1 / interlaced=0 / bluray_compat=0 / constrained_intra=0 / bframes=3 / b_pyramid=2 / b_adapt=1 / b_bias=0 / direct=3 / weightb=1 / open_gop=0 / weightp=2 / keyint=250 / keyint_min=23 / scenecut=40 / intra_refresh=0 / rc_lookahead=50 / rc=2pass / mbtree=1 / bitrate=8554 / ratetol=1.0 / qcomp=0.60 / qpmin=0 / qpmax=69 / qpstep=4 / cplxblur=20.0 / qblur=0.5 / vbv_maxrate=62500 / vbv_bufsize=78125 / nal_hrd=none / filler=0 / ip_ratio=1.40 / aq=1:1.00
Default : Yes
Forced : No

Audio #1
ID : 2
Format : AC-3
Format/Info : Audio Coding 3
Codec ID : A_AC3
Duration : 2 h 19 min
Bit rate mode : Constant
Bit rate : 224 kb/s
Channel(s) : 2 channels
Channel positions : Front: L R
Sampling rate : 48.0 kHz
Frame rate : 31.250 FPS (1536 SPF)
Bit depth : 16 bits
Compression mode : Lossy
Stream size : 224 MiB (2%)
Writing library : Lavc57.107.100 ac3
Language : Czech
Service kind : Complete Main
Default : Yes
Forced : No

Audio #2
ID : 3
Format : DTS
Format/Info : Digital Theater Systems
Codec ID : A_DTS
Duration : 2 h 19 min
Bit rate mode : Constant
Bit rate : 1 509 kb/s
Channel(s) : 6 channels
Channel positions : Front: L C R, Side: L R, LFE
Sampling rate : 48.0 kHz
Frame rate : 93.750 FPS (512 SPF)
Bit depth : 24 bits
Compression mode : Lossy
Stream size : 1.48 GiB (15%)
Language : English
Default : No
Forced : No

Text #1
ID : 4
Format : UTF-8
Codec ID : S_TEXT/UTF8
Codec ID/Info : UTF-8 Plain Text
Duration : 2 h 3 min
Title : forced
Writing library : Lavc57.107.100 srt
Language : Czech
Default : Yes
Forced : No

Text #2
ID : 5
Format : UTF-8
Codec ID : S_TEXT/UTF8
Codec ID/Info : UTF-8 Plain Text
Duration : 2 h 9 min
Writing library : Lavc57.107.100 srt
Language : Czech
Default : No
Forced : No

Text #3
ID : 6
Format : UTF-8
Codec ID : S_TEXT/UTF8
Codec ID/Info : UTF-8 Plain Text
Duration : 2 h 9 min
Writing library : Lavc57.107.100 srt
Language : English
Default : No
Forced : No

FullHD - AVC
Jen registrovaní uživatelé mohou vidět odkazy v code. Přihlaste se nebo zaregistrujte ZDARMA.


5801 MB

Video: 1920x800 - HEVC/H265 - 23.976 fps - 5 Mbps
Audio 1: CZ dabing - AC3 2.0 - 224 Kbps
Audio 2: ENG - HE-AAC 7.1 - 320 Kbps
Titulky: forced CZ + CZ + ENG
Čas: 2:19:58

MediaInfo
General
Format : Matroska
Format version : Version 4 / Version 2
File size : 5.40 GiB
Duration : 2 h 19 min
Overall bit rate : 5 526 kb/s
Writing application : Lavf57.83.100
Writing library : Lavf57.83.100
ErrorDetectionType : Per level 1

Video
ID : 1
Format : HEVC
Format/Info : High Efficiency Video Coding
Format profile : Main [email protected]@Main
Codec ID : V_MPEGH/ISO/HEVC
Duration : 2 h 19 min
Width : 1 920 pixels
Height : 804 pixels
Display aspect ratio : 2.40:1
Frame rate mode : Constant
Frame rate : 23.976 (24000/1001) FPS
Color space : YUV
Chroma subsampling : 4:2:0
Bit depth : 10 bits
Writing library : x265 2.8+19-bcdc610cf5f0:[Windows][GCC 7.3.0][64 bit] 10bit
Encoding settings : cpuid=1111039 / frame-threads=3 / numa-pools=8 / wpp / no-pmode / no-pme / no-psnr / no-ssim / log-level=2 / input-csp=1 / input-res=1920x804 / interlace=0 / total-frames=201357 / level-idc=0 / high-tier=1 / uhd-bd=0 / ref=4 / no-allow-non-conformance / no-repeat-headers / annexb / no-aud / no-hrd / info / hash=0 / no-temporal-layers / open-gop / min-keyint=23 / keyint=250 / gop-lookahead=0 / bframes=4 / b-adapt=2 / b-pyramid / bframe-bias=0 / rc-lookahead=25 / lookahead-slices=4 / scenecut=40 / radl=0 / no-intra-refresh / ctu=64 / min-cu-size=8 / rect / no-amp / max-tu-size=32 / tu-inter-depth=1 / tu-intra-depth=1 / limit-tu=0 / rdoq-level=2 / dynamic-rd=0.00 / no-ssim-rd / signhide / no-tskip / nr-intra=0 / nr-inter=0 / no-constrained-intra / strong-intra-smoothing / max-merge=3 / limit-refs=3 / limit-modes / me=3 / subme=3 / merange=57 / temporal-mvp / weightp / no-weightb / no-analyze-src-pics / deblock=0:0 / sao / no-sao-non-deblock / rd=4 / no-early-skip / rskip / no-fast-intra / no-tskip-fast / no-cu-lossless / no-b-intra / no-splitrd-skip / rdpenalty=0 / psy-rd=2.00 / psy-rdoq=1.00 / no-rd-refine / no-lossless / cbqpoffs=0 / crqpoffs=0 / rc=abr / bitrate=5000 / qcomp=0.60 / qpstep=4 / stats-write=0 / stats-read=2 / cplxblur=20.0 / qblur=0.5 / ipratio=1.40 / pbratio=1.30 / aq-mode=3 / aq-strength=1.00 / cutree / zone-count=0 / no-strict-cbr / qg-size=32 / no-rc-grain / qpmax=69 / qpmin=0 / no-const-vbv / sar=0 / overscan=0 / videoformat=5 / range=0 / colorprim=2 / transfer=2 / colormatrix=2 / chromaloc=0 / display-window=0 / max-cll=0,0 / min-luma=0 / max-luma=1023 / log2-max-poc-lsb=8 / vui-timing-info / vui-hrd-info / slices=1 / no-opt-qp-pps / no-opt-ref-list-length-pps / multi-pass-opt-rps / scenecut-bias=0.05 / no-opt-cu-delta-qp / aq-motion / no-hdr / no-hdr-opt / no-dhdr10-opt / no-idr-recovery-sei / analysis-reuse-level=5 / scale-factor=0 / refine-intra=0 / refine-inter=0 / refine-mv=0 / no-limit-sao / ctu-info=0 / no-lowpass-dct / refine-mv-type=0 / copy-pic=1 / max-ausize-factor=1.0 / no-dynamic-refine / no-single-sei
Default : Yes
Forced : No
Color range : Limited

Audio #1
ID : 2
Format : AC-3
Format/Info : Audio Coding 3
Codec ID : A_AC3
Duration : 2 h 19 min
Bit rate mode : Constant
Bit rate : 224 kb/s
Channel(s) : 2 channels
Channel positions : Front: L R
Sampling rate : 48.0 kHz
Frame rate : 31.250 FPS (1536 SPF)
Bit depth : 16 bits
Compression mode : Lossy
Stream size : 224 MiB (4%)
Writing library : Lavc57.107.100 ac3
Language : Czech
Service kind : Complete Main
Default : Yes
Forced : No

Audio #2
ID : 3
Format : AAC
Format/Info : Advanced Audio Codec
Format profile : HE-AAC / LC
Format settings : Explicit
Codec ID : A_AAC-2
Duration : 2 h 19 min
Channel(s) : 8 channels
Channel positions : Front: L C R, Side: L R, Back: L R, LFE
Sampling rate : 48.0 kHz / 24.0 kHz
Frame rate : 23.438 FPS (1024 SPF)
Compression mode : Lossy
Delay relative to video : 31 ms
Language : English
Default : No
Forced : No

Text #1
ID : 4
Format : UTF-8
Codec ID : S_TEXT/UTF8
Codec ID/Info : UTF-8 Plain Text
Duration : 2 h 3 min
Title : forced
Writing library : Lavc57.107.100 srt
Language : Czech
Default : Yes
Forced : No

Text #2
ID : 5
Format : UTF-8
Codec ID : S_TEXT/UTF8
Codec ID/Info : UTF-8 Plain Text
Duration : 2 h 9 min
Writing library : Lavc57.107.100 srt
Language : Czech
Default : No
Forced : No

Text #3
ID : 6
Format : UTF-8
Codec ID : S_TEXT/UTF8
Codec ID/Info : UTF-8 Plain Text
Duration : 2 h 9 min
Writing library : Lavc57.107.100 srt
Language : English
Default : No
Forced : No

FullHD - HEVC
Jen registrovaní uživatelé mohou vidět odkazy v code. Přihlaste se nebo zaregistrujte ZDARMA.


Extras - Dokumenty z natáčení
Jen registrovaní uživatelé mohou vidět odkazy v code. Přihlaste se nebo zaregistrujte ZDARMA.

1429 MB

Video: 1920x1080 - HEVC/H265 - 23.976 fps - 1.5 Mbps
Audio: ENG - HE-AAC 2.0 - 64 Kbps
Titulky: ENG+ITA+SPA+JAP
Jen registrovaní uživatelé mohou vidět odkazy v code. Přihlaste se nebo zaregistrujte ZDARMA.

________________________________________________________________________________


07 črc 2018, 08:17
Profil
Private
Private

Registrován: 08 dub 2009, 11:22
Příspěvky: 10
Příspěvek Re: Ready Player One: Hra sa začína / Ready Player One (2018

Byl by prosím někdo tak hodný a uploadnul verzi 1080p na Webshare? :)


07 črc 2018, 08:30
Profil
Warman
Warman

Registrován: 26 kvě 2015, 00:50
Příspěvky: 1360
Příspěvek Re: Ready Player One: Hra sa začína / Ready Player One (2018

Ready Player One: Hra začíná / Ready Player One (2018)

CSFD:

Jen registrovaní uživatelé mohou vidět odkazy v code. Přihlaste se nebo zaregistrujte ZDARMA.


Re: Ready Player One: Hra sa začína / Ready Player One (2018

Ready.Player.One.2018.720p.BluRay.x264.DD5.1.CZ
Ready.Player.One.2018.1080p.BluRay.x264.DD5.1.CZ
Ready.Player.One.2018.1080p.BluRay.DTS.REMUX.AVC.DD5.1.CZ


Ready.Player.One.2018.720p.BluRay.x264.DD5.1.CZ
Jazyk: Czech 5,1 384 Kbps , English 5.1 640 Kbps
Subtitles: Czech forced , Czech , English

iNFO

Jen registrovaní uživatelé mohou vidět odkazy v code. Přihlaste se nebo zaregistrujte ZDARMA.


Re: Ready Player One: Hra sa začína / Ready Player One (2018
Jen registrovaní uživatelé mohou vidět odkazy v code. Přihlaste se nebo zaregistrujte ZDARMA.

Jen registrovaní uživatelé mohou vidět odkazy v code. Přihlaste se nebo zaregistrujte ZDARMA.

Přidán záznam na opravu dat 3%.

Ready.Player.One.2018.1080p.BluRay.x264.DD5.1.CZ
Jazyk: Czech 5,1 384 Kbps , English 5.1 640 Kbps
Subtitles: Czech forced , Czech , English

iNFO

Jen registrovaní uživatelé mohou vidět odkazy v code. Přihlaste se nebo zaregistrujte ZDARMA.


Re: Ready Player One: Hra sa začína / Ready Player One (2018
Jen registrovaní uživatelé mohou vidět odkazy v code. Přihlaste se nebo zaregistrujte ZDARMA.

Jen registrovaní uživatelé mohou vidět odkazy v code. Přihlaste se nebo zaregistrujte ZDARMA.

Přidán záznam na opravu dat 3%.

Ready.Player.One.2018.1080p.BluRay.DTS.REMUX.AVC.DD5.1.CZ
Jazyk: Czech 5.1 384 Kbps , English 5.1 DTS 1 509 Kbps
Subtitles: Czech forced , Czech , English

iNFO

Jen registrovaní uživatelé mohou vidět odkazy v code. Přihlaste se nebo zaregistrujte ZDARMA.


Re: Ready Player One: Hra sa začína / Ready Player One (2018
Jen registrovaní uživatelé mohou vidět odkazy v code. Přihlaste se nebo zaregistrujte ZDARMA.

Jen registrovaní uživatelé mohou vidět odkazy v code. Přihlaste se nebo zaregistrujte ZDARMA.

Přidán záznam na opravu dat 3%.


Naposledy upravil browing3006 dne 09 črc 2018, 05:06, celkově upraveno 2

08 črc 2018, 16:22
Profil
Colonel 2 nd class
Colonel 2 nd class

Registrován: 09 bře 2009, 18:27
Příspěvky: 438
Příspěvek Re: Ready Player One: Hra sa začína / Ready Player One (2018

Ready Player One: Hra začíná / Ready Player One (2018)(CZ)[HEVC][2160pLQ]


Cover:

Re: Ready Player One: Hra sa začína / Ready Player One (2018

Info:

Jazyk: Český, Anglický
Titulky:


Csfd:
Jen registrovaní uživatelé mohou vidět odkazy v code. Přihlaste se nebo zaregistrujte ZDARMA.

Info:
Jen registrovaní uživatelé mohou vidět odkazy v code. Přihlaste se nebo zaregistrujte ZDARMA.

Download:
Jen registrovaní uživatelé mohou vidět odkazy v code. Přihlaste se nebo zaregistrujte ZDARMA.


08 črc 2018, 20:25
Profil
Master Sergant
Master Sergant

Registrován: 20 lis 2008, 18:20
Příspěvky: 152
Příspěvek Ready Player One: Hra sa začína / Ready Player One (2018)

Ready Player One: Hra sa začína / Ready Player One (2018) 1080p_X265-HEVC_5.1 CZECH

Jen registrovaní uživatelé mohou vidět odkazy v code. Přihlaste se nebo zaregistrujte ZDARMA.


Ready Player One: Hra sa začína / Ready Player One (2018)

Jen registrovaní uživatelé mohou vidět odkazy v code. Přihlaste se nebo zaregistrujte ZDARMA.


)..(

Jen registrovaní uživatelé mohou vidět odkazy v code. Přihlaste se nebo zaregistrujte ZDARMA.


)..(

Jen registrovaní uživatelé mohou vidět odkazy v code. Přihlaste se nebo zaregistrujte ZDARMA.


11 črc 2018, 08:00
Profil
Master Sergant
Master Sergant

Registrován: 20 lis 2008, 18:20
Příspěvky: 152
Příspěvek Ready Player One: Hra sa začína / Ready Player One (2018)

Ready Player One: Hra sa začína / Ready Player One (2018) 2160p_4K-UHD-HDR_X265-HEVC_7.1 ENG_5.1 CZECH

Jen registrovaní uživatelé mohou vidět odkazy v code. Přihlaste se nebo zaregistrujte ZDARMA.


Ready Player One: Hra sa začína / Ready Player One (2018)

Jen registrovaní uživatelé mohou vidět odkazy v code. Přihlaste se nebo zaregistrujte ZDARMA.


)..(

Jen registrovaní uživatelé mohou vidět odkazy v code. Přihlaste se nebo zaregistrujte ZDARMA.


)..(

Jen registrovaní uživatelé mohou vidět odkazy v code. Přihlaste se nebo zaregistrujte ZDARMA.


11 črc 2018, 12:11
Profil
Zobrazit příspěvky za předchozí:  Seřadit podle  
Odeslat nové téma Odpovědět na téma  [ Příspěvků: 7 ] 

Všechny časy jsou v UTC + 1 hodina


Nemůžete zakládat nová témata v tomto fóru
Nemůžete odpovídat v tomto fóru
Nemůžete upravovat své příspěvky v tomto fóru
Nemůžete mazat své příspěvky v tomto fóru
Nemůžete přikládat soubory v tomto fóru









StahovaniZaSMS Pizza Modena MP3 free download