fastshare
Rampage Ničitelé / Rampage (2018)
Vypnout statistiky
KATEGORIEPOSLEDNÍ PŘÍSPĚVKYPOSLEDNÍ OZNÁMENÍSTATISTIKY UŽIVATELE
Nick: Anonymous
Příspěvků: 3361
Hodnost: Warman
Varování: 0
---
Právě je 18 zář 2018, 18:33





Všechny časy jsou v UTC + 1 hodina


Pravidla fóra







Odeslat nové téma Odpovědět na téma  [ Příspěvků: 10 ] 
 Rampage Ničitelé / Rampage (2018) 
Autor Zpráva
Warman
Warman
Uživatelský avatar

Registrován: 31 srp 2015, 17:58
Příspěvky: 2955
Příspěvek Rampage Ničitelé / Rampage (2018)

Rampage Ničitelé / Rampage (2018)
Rampage Ničitelé / Rampage (2018)
Jen registrovaní uživatelé mohou vidět odkazy v code. Přihlaste se nebo zaregistrujte ZDARMA.

Rampage.2018.CZ DABING.720p.BluRay.x264
Audio - CZ
Jen registrovaní uživatelé mohou vidět odkazy v code. Přihlaste se nebo zaregistrujte ZDARMA.

Rampage Ničitelé / Rampage (2018)
Jen registrovaní uživatelé mohou vidět odkazy v code. Přihlaste se nebo zaregistrujte ZDARMA.


12 črc 2018, 07:44
Profil
Colonel
Colonel

Registrován: 10 čer 2018, 20:41
Příspěvky: 351
Příspěvek Re: Rampage Ničitelé / Rampage (2018)

Rampage.2018.1080p.BluRay.x264.CZ


Re: Rampage Ničitelé / Rampage (2018)


Jen registrovaní uživatelé mohou vidět odkazy v code. Přihlaste se nebo zaregistrujte ZDARMA.



Jen registrovaní uživatelé mohou vidět odkazy v code. Přihlaste se nebo zaregistrujte ZDARMA.



Jen registrovaní uživatelé mohou vidět odkazy v code. Přihlaste se nebo zaregistrujte ZDARMA.





Rampage.2018.1080p.BluRay.x264.DTS-HD.MA.7.1.EN.AC3.CZ


Jen registrovaní uživatelé mohou vidět odkazy v code. Přihlaste se nebo zaregistrujte ZDARMA.



Jen registrovaní uživatelé mohou vidět odkazy v code. Přihlaste se nebo zaregistrujte ZDARMA.


12 črc 2018, 09:37
Profil
Warrant
Warrant

Registrován: 15 črc 2008, 21:29
Příspěvky: 179
Příspěvek Re: Rampage Ničitelé / Rampage (2018)

Rampage Ničitelé / Rampage (2018) [Blu-ray RIP]

Akční / Dobrodružný / Sci-Fi
Mezi samotářským primatologem Davisem Okoyem (Dwayne Johnson) a výjimečně inteligentním gorilím samcem Georgem, o kterého se Davis stará od jeho narození, vzniklo velmi pevné pouto. Nezdařený nebezpečný genetický experiment však změní toho mírného lidoopa v obrovské zuřící monstrum. A jako by to nestačilo, brzy se zjistí, že podobně jsou zmutována i další zvířata. Když se tito uměle vytvoření alfa predátoři nekontrolovatelně řítí Severní Amerikou a ničí vše, co jim přijde do cesty, Okoye začne ve spolupráci se zdiskreditovaným genetickým inženýrem vyvíjet protilátku a probíjí se nevyzpytatelným bojištěm, nejen aby zastavil hrozící celosvětovou katastrofu, ale také aby zachránil strašlivého netvora, který býval jeho přítelem.

INFO:
Jen registrovaní uživatelé mohou vidět odkazy v code. Přihlaste se nebo zaregistrujte ZDARMA.


Re: Rampage Ničitelé / Rampage (2018)
________________________________________________________________________________

8422 MB

Video: 1920x800 - AVC/H264 - 23.976 fps - 9.5 Mbps
Audio: CZ dabing - AC3 2.0 - 256 Kbps
Audio: ENG - AC3 5.1 - 640 Kbps
Titulky: forced CZ + ENG
Čas: 1:47:16

MediaInfo
General
Format : Matroska
Format version : Version 4 / Version 2
File size : 7.84 GiB
Duration : 1 h 47 min
Overall bit rate : 10.5 Mb/s
Writing application : Lavf57.83.100
Writing library : Lavf57.83.100
ErrorDetectionType : Per level 1

Video
ID : 1
Format : AVC
Format/Info : Advanced Video Codec
Format profile : [email protected]
Format settings : CABAC / 5 Ref Frames
Format settings, CABAC : Yes
Format settings, RefFrames : 5 frames
Codec ID : V_MPEG4/ISO/AVC
Duration : 1 h 47 min
Bit rate : 9 571 kb/s
Width : 1 920 pixels
Height : 800 pixels
Display aspect ratio : 2.40:1
Frame rate mode : Constant
Frame rate : 23.976 FPS
Color space : YUV
Chroma subsampling : 4:2:0
Bit depth : 8 bits
Scan type : Progressive
Bits/(Pixel*Frame) : 0.260
Stream size : 7.02 GiB (89%)
Writing library : x264 core 155 r2901 7d0ff22
Encoding settings : cabac=1 / ref=5 / deblock=1:0:0 / analyse=0x3:0x133 / me=umh / subme=7 / psy=1 / psy_rd=1.00:0.00 / mixed_ref=1 / me_range=16 / chroma_me=1 / trellis=1 / 8x8dct=1 / cqm=0 / deadzone=21,11 / fast_pskip=0 / chroma_qp_offset=-2 / threads=25 / lookahead_threads=4 / sliced_threads=0 / nr=0 / decimate=1 / interlaced=0 / bluray_compat=0 / constrained_intra=0 / bframes=3 / b_pyramid=2 / b_adapt=1 / b_bias=0 / direct=1 / weightb=1 / open_gop=0 / weightp=2 / keyint=250 / keyint_min=23 / scenecut=40 / intra_refresh=0 / rc_lookahead=40 / rc=2pass / mbtree=1 / bitrate=9571 / ratetol=1.0 / qcomp=0.60 / qpmin=0 / qpmax=69 / qpstep=4 / cplxblur=20.0 / qblur=0.5 / ip_ratio=1.40 / aq=1:1.00
Default : Yes
Forced : No

Audio #1
ID : 2
Format : AC-3
Format/Info : Audio Coding 3
Codec ID : A_AC3
Duration : 1 h 47 min
Bit rate mode : Constant
Bit rate : 256 kb/s
Channel(s) : 2 channels
Channel positions : Front: L R
Sampling rate : 48.0 kHz
Frame rate : 31.250 FPS (1536 SPF)
Bit depth : 16 bits
Compression mode : Lossy
Stream size : 196 MiB (2%)
Language : Czech
Service kind : Complete Main
Default : Yes
Forced : No

Audio #2
ID : 3
Format : AC-3
Format/Info : Audio Coding 3
Codec ID : A_AC3
Duration : 1 h 47 min
Bit rate mode : Constant
Bit rate : 640 kb/s
Channel(s) : 6 channels
Channel positions : Front: L C R, Side: L R, LFE
Sampling rate : 48.0 kHz
Frame rate : 31.250 FPS (1536 SPF)
Bit depth : 16 bits
Compression mode : Lossy
Stream size : 491 MiB (6%)
Language : English
Service kind : Complete Main
Default : No
Forced : No

Text #1
ID : 4
Format : UTF-8
Codec ID : S_TEXT/UTF8
Codec ID/Info : UTF-8 Plain Text
Duration : 1 h 32 min
Title : forced
Writing library : Lavc57.107.100 srt
Language : Czech
Default : Yes
Forced : No

Text #2
ID : 5
Format : UTF-8
Codec ID : S_TEXT/UTF8
Codec ID/Info : UTF-8 Plain Text
Duration : 1 h 39 min
Writing library : Lavc57.107.100 srt
Language : Czech
Default : No
Forced : No

Text #3
ID : 6
Format : UTF-8
Codec ID : S_TEXT/UTF8
Codec ID/Info : UTF-8 Plain Text
Duration : 1 h 39 min
Writing library : Lavc57.107.100 srt
Language : English
Default : No
Forced : No

FullHD - AVC
Jen registrovaní uživatelé mohou vidět odkazy v code. Přihlaste se nebo zaregistrujte ZDARMA.


8566 MB

Video: 1920x800 - HEVC/H265 - 23.976 fps - 6 Mbps
Audio: CZ dabing - AC3 2.0 - 256 Kbps
Audio: ENG - TrueHD 7.1 - 5.2 Mbps
Titulky: forced CZ + ENG
Čas: 1:47:16

MediaInfo
General
Format : Matroska
Format version : Version 4 / Version 2
File size : 7.98 GiB
Duration : 1 h 47 min
Overall bit rate mode : Variable
Overall bit rate : 10.6 Mb/s
Writing application : Lavf57.83.100
Writing library : Lavf57.83.100
ErrorDetectionType : Per level 1

Video
ID : 1
Format : HEVC
Format/Info : High Efficiency Video Coding
Format profile : Main [email protected]@Main
Codec ID : V_MPEGH/ISO/HEVC
Duration : 1 h 47 min
Width : 1 920 pixels
Height : 800 pixels
Display aspect ratio : 2.40:1
Frame rate mode : Constant
Frame rate : 23.976 (23976/1000) FPS
Color space : YUV
Chroma subsampling : 4:2:0
Bit depth : 10 bits
Writing library : x265 2.7+15-b9f5b5d7bf95:[Windows][MSVC 1800][64 bit] 10bit
Encoding settings : cpuid=1173503 / frame-threads=3 / numa-pools=8 / wpp / no-pmode / no-pme / no-psnr / no-ssim / log-level=2 / input-csp=1 / input-res=1920x800 / interlace=0 / total-frames=0 / level-idc=0 / high-tier=1 / uhd-bd=0 / ref=6 / no-allow-non-conformance / repeat-headers / annexb / no-aud / no-hrd / info / hash=0 / no-temporal-layers / no-open-gop / min-keyint=23 / keyint=250 / gop-lookahead=0 / bframes=8 / b-adapt=2 / b-pyramid / bframe-bias=0 / rc-lookahead=24 / lookahead-slices=5 / scenecut=40 / radl=0 / no-intra-refresh / ctu=64 / min-cu-size=8 / no-rect / no-amp / max-tu-size=32 / tu-inter-depth=1 / tu-intra-depth=1 / limit-tu=0 / rdoq-level=0 / dynamic-rd=0.00 / no-ssim-rd / signhide / no-tskip / nr-intra=0 / nr-inter=0 / no-constrained-intra / no-strong-intra-smoothing / max-merge=2 / limit-refs=3 / no-limit-modes / me=2 / subme=7 / merange=48 / temporal-mvp / weightp / weightb / no-analyze-src-pics / deblock=0:0 / sao / no-sao-non-deblock / rd=4 / no-early-skip / rskip / no-fast-intra / no-tskip-fast / no-cu-lossless / no-b-intra / no-splitrd-skip / rdpenalty=0 / psy-rd=2.00 / psy-rdoq=0.00 / no-rd-refine / no-lossless / cbqpoffs=0 / crqpoffs=0 / rc=crf / crf=19.0 / qcomp=0.60 / qpstep=4 / stats-write=0 / stats-read=0 / ipratio=1.40 / pbratio=1.30 / aq-mode=3 / aq-strength=1.00 / cutree / zone-count=0 / no-strict-cbr / qg-size=32 / no-rc-grain / qpmax=69 / qpmin=0 / no-const-vbv / sar=0 / overscan=0 / videoformat=5 / range=0 / colorprim=2 / transfer=2 / colormatrix=2 / chromaloc=0 / display-window=0 / max-cll=0,0 / min-luma=0 / max-luma=1023 / log2-max-poc-lsb=8 / vui-timing-info / vui-hrd-info / slices=1 / no-opt-qp-pps / no-opt-ref-list-length-pps / no-multi-pass-opt-rps / scenecut-bias=0.05 / no-opt-cu-delta-qp / aq-motion / no-hdr / no-hdr-opt / no-dhdr10-opt / no-idr-recovery-sei / analysis-reuse-level=5 / scale-factor=0 / refine-intra=0 / refine-inter=0 / refine-mv=0 / no-limit-sao / ctu-info=0 / no-lowpass-dct / refine-mv-type=0 / copy-pic=1 / max-ausize-factor=1.0 / no-dynamic-refine
Default : Yes
Forced : No
Color range : Limited

Audio #1
ID : 2
Format : AC-3
Format/Info : Audio Coding 3
Codec ID : A_AC3
Duration : 1 h 47 min
Bit rate mode : Constant
Bit rate : 256 kb/s
Channel(s) : 2 channels
Channel positions : Front: L R
Sampling rate : 48.0 kHz
Frame rate : 31.250 FPS (1536 SPF)
Bit depth : 16 bits
Compression mode : Lossy
Stream size : 196 MiB (2%)
Language : Czech
Service kind : Complete Main
Default : Yes
Forced : No

Audio #2
ID : 3
Format : TrueHD
Format profile : TrueHD+Atmos / TrueHD
Codec ID : A_TRUEHD
Duration : 1 h 47 min
Bit rate mode : Variable
Maximum bit rate : 5 205 kb/s
Channel(s) : Object Based / 8 channels
Channel positions : Object Based / Front: L C R, Side: L R, Back: L R, LFE
Sampling rate : / 48.0 kHz
Frame rate : 1 200.000 FPS (40 SPF)
Bit depth : 24 bits
Compression mode : Lossless
Language : English
Default : No
Forced : No

Text #1
ID : 4
Format : UTF-8
Codec ID : S_TEXT/UTF8
Codec ID/Info : UTF-8 Plain Text
Duration : 1 h 32 min
Title : forced
Writing library : Lavc57.107.100 srt
Language : Czech
Default : Yes
Forced : No

Text #2
ID : 5
Format : UTF-8
Codec ID : S_TEXT/UTF8
Codec ID/Info : UTF-8 Plain Text
Duration : 1 h 39 min
Writing library : Lavc57.107.100 srt
Language : Czech
Default : No
Forced : No

Text #3
ID : 6
Format : UTF-8
Codec ID : S_TEXT/UTF8
Codec ID/Info : UTF-8 Plain Text
Duration : 1 h 39 min
Writing library : Lavc57.107.100 srt
Language : English
Default : No
Forced : No

FullHD - HEVC
Jen registrovaní uživatelé mohou vidět odkazy v code. Přihlaste se nebo zaregistrujte ZDARMA.

________________________________________________________________________________


12 črc 2018, 15:03
Profil
Warman
Warman

Registrován: 26 kvě 2015, 00:50
Příspěvky: 1360
Příspěvek Re: Rampage Ničitelé / Rampage (2018)

Rampage Ničitelé / Rampage (2018)

CSFD:

Jen registrovaní uživatelé mohou vidět odkazy v code. Přihlaste se nebo zaregistrujte ZDARMA.


Re: Rampage Ničitelé / Rampage (2018)

Rampage.2018.720p.BluRay.x264.CZ
Rampage.2018.1080p.BluRay.x264.CZ
Rampage.2018.1080p.BluRay.x264.CZ


Rampage.2018.720p.BluRay.x264.CZ
Jazyk: Czech 2.0 256 Kbps , English 5.1 640 Kbps
Subtitles: Czech forced , Czech , English

iNFO

Jen registrovaní uživatelé mohou vidět odkazy v code. Přihlaste se nebo zaregistrujte ZDARMA.


Re: Rampage Ničitelé / Rampage (2018)
Jen registrovaní uživatelé mohou vidět odkazy v code. Přihlaste se nebo zaregistrujte ZDARMA.


Přidán záznam na opravu dat 3%.

Rampage.2018.1080p.BluRay.x264.CZ
Jazyk: Czech 2.0 256 Kbps , English 5.1 640 Kbps
Subtitles: Czech forced , Czech , English

iNFO

Jen registrovaní uživatelé mohou vidět odkazy v code. Přihlaste se nebo zaregistrujte ZDARMA.


Re: Rampage Ničitelé / Rampage (2018)
Jen registrovaní uživatelé mohou vidět odkazy v code. Přihlaste se nebo zaregistrujte ZDARMA.


Přidán záznam na opravu dat 3%.
Rampage.2018.1080p.BluRay.x264.CZ
Jazyk: Czech 2.0 256 Kbps , English 5.1 640 Kbps
Subtitles: Czech forced , Czech , English

iNFO

Jen registrovaní uživatelé mohou vidět odkazy v code. Přihlaste se nebo zaregistrujte ZDARMA.


Re: Rampage Ničitelé / Rampage (2018)
Jen registrovaní uživatelé mohou vidět odkazy v code. Přihlaste se nebo zaregistrujte ZDARMA.


Přidán záznam na opravu dat 3%.


12 črc 2018, 18:35
Profil
Colonel 5 th class
Colonel 5 th class

Registrován: 20 čer 2015, 20:36
Příspěvky: 629
Příspěvek Re: Rampage Ničitelé / Rampage (2018)

Rampage Ničitelé / Rampage (2018)

Re: Rampage Ničitelé / Rampage (2018)

Akční / Sci-Fi / Dobrodružný
USA, 2018, 111 min


OBSAH
Mezi samotářským primatologem Davisem Okoyem (Dwayne Johnson) a výjimečně inteligentním gorilím samcem Georgem, o kterého se Davis stará od jeho narození, vzniklo velmi pevné pouto...

Re: Rampage Ničitelé / Rampage (2018)Re: Rampage Ničitelé / Rampage (2018)
Jen registrovaní uživatelé mohou vidět odkazy v code. Přihlaste se nebo zaregistrujte ZDARMA.


Zvuk: český (6CH), anglický (6CH)
Titulky: české-vynucené, české

MEDIA-INFO
Rampage (2018) BluRay 720p CZ EN 6CH
Jen registrovaní uživatelé mohou vidět odkazy v code. Přihlaste se nebo zaregistrujte ZDARMA.


DOWNLOAD
Jen registrovaní uživatelé mohou vidět odkazy v code. Přihlaste se nebo zaregistrujte ZDARMA.





MEDIA-INFO
Rampage (2018) BluRay 1080p CZ EN 6CH
Jen registrovaní uživatelé mohou vidět odkazy v code. Přihlaste se nebo zaregistrujte ZDARMA.


DOWNLOAD
Jen registrovaní uživatelé mohou vidět odkazy v code. Přihlaste se nebo zaregistrujte ZDARMA.


13 črc 2018, 11:06
Profil
Colonel
Colonel

Registrován: 10 čer 2018, 20:41
Příspěvky: 351
Příspěvek Re: Rampage Ničitelé / Rampage (2018)

Rampage Ničitelé / Rampage (2018)


Re: Rampage Ničitelé / Rampage (2018)


Jen registrovaní uživatelé mohou vidět odkazy v code. Přihlaste se nebo zaregistrujte ZDARMA.



Rampage.2018.1080p.BluRay.x264.DTS.EN.DD5.1.CZ


Jen registrovaní uživatelé mohou vidět odkazy v code. Přihlaste se nebo zaregistrujte ZDARMA.



Jen registrovaní uživatelé mohou vidět odkazy v code. Přihlaste se nebo zaregistrujte ZDARMA.





Rampage.2018.1080p.BluRay.x264.DTS-HD.MA.7.1.EN.DD5.1.CZ


Jen registrovaní uživatelé mohou vidět odkazy v code. Přihlaste se nebo zaregistrujte ZDARMA.



Jen registrovaní uživatelé mohou vidět odkazy v code. Přihlaste se nebo zaregistrujte ZDARMA.


Naposledy upravil Harada dne 14 črc 2018, 07:25, celkově upraveno 1

13 črc 2018, 15:26
Profil
Warman
Warman

Registrován: 26 kvě 2015, 00:50
Příspěvky: 1360
Příspěvek Re: Rampage Ničitelé / Rampage (2018)

Rampage Ničitelé / Rampage (2018)

CSFD:

Jen registrovaní uživatelé mohou vidět odkazy v code. Přihlaste se nebo zaregistrujte ZDARMA.


Re: Rampage Ničitelé / Rampage (2018)

Rampage.2018.720p.BluRay.x264.DD5.1.CZ
Rampage.2018.1080p.BluRay.x264.DD5.1.CZ
Rampage.2018.1080p.BluRay.DTS.REMUX.AVC.DD5.1.CZ


Rampage.2018.720p.BluRay.x264.DD5.1.CZ
Jazyk: Czech 5.1 448 Kbps , English 5.1 640 Kbps
Subtitles: Czech forced , Czech , English

iNFO

Jen registrovaní uživatelé mohou vidět odkazy v code. Přihlaste se nebo zaregistrujte ZDARMA.


Re: Rampage Ničitelé / Rampage (2018)
Jen registrovaní uživatelé mohou vidět odkazy v code. Přihlaste se nebo zaregistrujte ZDARMA.

Jen registrovaní uživatelé mohou vidět odkazy v code. Přihlaste se nebo zaregistrujte ZDARMA.

Přidán záznam na opravu dat 3%.

Rampage.2018.1080p.BluRay.x264.DD5.1.CZ
Jazyk: Czech 5.1 448 Kbps , English 5.1 640 Kbps
Subtitles: Czech forced , Czech , English

iNFO

Jen registrovaní uživatelé mohou vidět odkazy v code. Přihlaste se nebo zaregistrujte ZDARMA.


Re: Rampage Ničitelé / Rampage (2018)
Jen registrovaní uživatelé mohou vidět odkazy v code. Přihlaste se nebo zaregistrujte ZDARMA.

Jen registrovaní uživatelé mohou vidět odkazy v code. Přihlaste se nebo zaregistrujte ZDARMA.

Přidán záznam na opravu dat 3%.

Rampage.2018.1080p.BluRay.DTS.REMUX.AVC.DD5.1.CZ
Jazyk: Czech 5.1 448 Kbps , English 5.1 DTS 1 509 Kbps
Subtitles: Czech forced , Czech , English

iNFO

Jen registrovaní uživatelé mohou vidět odkazy v code. Přihlaste se nebo zaregistrujte ZDARMA.


Re: Rampage Ničitelé / Rampage (2018)
Jen registrovaní uživatelé mohou vidět odkazy v code. Přihlaste se nebo zaregistrujte ZDARMA.

Jen registrovaní uživatelé mohou vidět odkazy v code. Přihlaste se nebo zaregistrujte ZDARMA.

Přidán záznam na opravu dat 3%.


13 črc 2018, 22:11
Profil
Master Sergant
Master Sergant

Registrován: 20 lis 2008, 18:20
Příspěvky: 124
Příspěvek Rampage Ničitelé / Rampage (2018)

Rampage Ničitelé / Rampage (2018) 1080p_X265-HEVC_7.1 Eng_5.1 CZECH

Jen registrovaní uživatelé mohou vidět odkazy v code. Přihlaste se nebo zaregistrujte ZDARMA.


Rampage Ničitelé / Rampage (2018)

Jen registrovaní uživatelé mohou vidět odkazy v code. Přihlaste se nebo zaregistrujte ZDARMA.


)..(

Jen registrovaní uživatelé mohou vidět odkazy v code. Přihlaste se nebo zaregistrujte ZDARMA.


)..(

Jen registrovaní uživatelé mohou vidět odkazy v code. Přihlaste se nebo zaregistrujte ZDARMA.


18 črc 2018, 21:18
Profil
Master Sergant
Master Sergant

Registrován: 20 lis 2008, 18:20
Příspěvky: 124
Příspěvek Rampage Ničitelé / Rampage (2018)

Rampage Ničitelé / Rampage (2018) 2160p_4K_UHD_HDR_X265-HEVC_TrueHD ATMOS ENG_5.1 CZECH

Jen registrovaní uživatelé mohou vidět odkazy v code. Přihlaste se nebo zaregistrujte ZDARMA.



Rampage Ničitelé / Rampage (2018)


Jen registrovaní uživatelé mohou vidět odkazy v code. Přihlaste se nebo zaregistrujte ZDARMA.


)..(

Jen registrovaní uživatelé mohou vidět odkazy v code. Přihlaste se nebo zaregistrujte ZDARMA.


)..(

Jen registrovaní uživatelé mohou vidět odkazy v code. Přihlaste se nebo zaregistrujte ZDARMA.


21 črc 2018, 07:44
Profil
Major
Major

Registrován: 30 pro 2007, 17:16
Příspěvky: 337
Příspěvek Re: Rampage Ničitelé / Rampage (2018)

Rampage Ničitelé / Rampage (2018)
Video/Zdroj: BluRay 1080p
Audio: CZ AC-3 5.1ch, EN AC-3 5.1ch
Titulky: CZ forced, CZ, EN

Re: Rampage Ničitelé / Rampage (2018)

Jen registrovaní uživatelé mohou vidět odkazy v code. Přihlaste se nebo zaregistrujte ZDARMA.


Citace:
Format : Matroska
Format version : Version 4 / Version 2
File size : 12.4 GiB
Duration : 1 h 47 min
Overall bit rate : 16.6 Mb/s

Video
Format : AVC
Format profile : [email protected]
Duration : 1 h 47 min
Bit rate : 15.5 Mb/s
Width : 1 920 pixels
Height : 800 pixels
Display aspect ratio : 2.40:1
Frame rate mode : Constant
Frame rate : 23.976 (24000/1001) FPS
Color space : YUV
Chroma subsampling : 4:2:0
Bit depth : 8 bits
Scan type : Progressive
Bits/(Pixel*Frame) : 0.421
Stream size : 11.4 GiB (91%)

Audio #1
Format : AC-3
Duration : 1 h 47 min
Bit rate mode : Constant
Bit rate : 640 kb/s
Channel(s) : 6 channels
Channel positions : Front: L C R, Side: L R, LFE
Sampling rate : 48.0 kHz
Frame rate : 31.250 FPS (1536 SPF)
Bit depth : 16 bits
Compression mode : Lossy
Stream size : 491 MiB (4%)
Language : English
Default : No
Forced : No

Audio #2
Format : AC-3
Duration : 1 h 47 min
Bit rate mode : Constant
Bit rate : 448 kb/s
Channel(s) : 6 channels
Channel positions : Front: L C R, Side: L R, LFE
Sampling rate : 48.0 kHz
Frame rate : 31.250 FPS (1536 SPF)
Bit depth : 16 bits
Compression mode : Lossy
Stream size : 344 MiB (3%)
Language : Czech
Default : Yes
Forced : Yes

Text #1
Format : UTF-8
Language : Czech
Default : Yes
Forced : Yes

Text #2
Format : UTF-8
Language : Czech
Default : No
Forced : No

Text #3
Format : UTF-8
Language : English
Default : No
Forced : No


Fastshare
Jen registrovaní uživatelé mohou vidět odkazy v code. Přihlaste se nebo zaregistrujte ZDARMA.


Bez hesla. Balené bez kompresie. Pridaný záznam pre opravu dát 5%.


24 črc 2018, 15:45
Profil
Zobrazit příspěvky za předchozí:  Seřadit podle  
Odeslat nové téma Odpovědět na téma  [ Příspěvků: 10 ] 

Všechny časy jsou v UTC + 1 hodina


Nemůžete zakládat nová témata v tomto fóru
Nemůžete odpovídat v tomto fóru
Nemůžete upravovat své příspěvky v tomto fóru
Nemůžete mazat své příspěvky v tomto fóru
Nemůžete přikládat soubory v tomto fóru









StahovaniZaSMS Pizza Modena MP3 free download