fastshare
Včelka Mája:Medové hry / Maya the Bee:The Honey Games (2018)
Vypnout statistiky
KATEGORIEPOSLEDNÍ PŘÍSPĚVKYPOSLEDNÍ OZNÁMENÍSTATISTIKY UŽIVATELE
Nick: Anonymous
Příspěvků: 3361
Hodnost: Warman
Varování: 0
---
Právě je 15 lis 2018, 09:19





Všechny časy jsou v UTC + 1 hodina


Pravidla fóra







Odeslat nové téma Odpovědět na téma  [ Příspěvků: 2 ] 
 Včelka Mája:Medové hry / Maya the Bee:The Honey Games (2018) 
Autor Zpráva
Warman
Warman

Registrován: 26 kvě 2015, 00:50
Příspěvky: 1360
Příspěvek Včelka Mája:Medové hry / Maya the Bee:The Honey Games (2018)

Včelka Mája:Medové hry / Maya the Bee:The Honey Games (2018)

CSFD:

Jen registrovaní uživatelé mohou vidět odkazy v code. Přihlaste se nebo zaregistrujte ZDARMA.


Včelka Mája:Medové hry / Maya the Bee:The Honey Games (2018)

Maya.The.Bee.The.Honey.Games.2018.1080p.BluRay.DTS.x264.DD5.1.CZ.SK

Maya.The.Bee.The.Honey.Games.2018.1080p.BluRay.DTS.x264.DD5.1.CZ.SK
Jazyk: Czech 5.1 448 Kbps , Slovak 5.1 448 Kbps , English 5.1 DTS 1 509 Kbps
Subtitles: Ne

iNFO

Jen registrovaní uživatelé mohou vidět odkazy v code. Přihlaste se nebo zaregistrujte ZDARMA.


Včelka Mája:Medové hry / Maya the Bee:The Honey Games (2018)
Jen registrovaní uživatelé mohou vidět odkazy v code. Přihlaste se nebo zaregistrujte ZDARMA.

Jen registrovaní uživatelé mohou vidět odkazy v code. Přihlaste se nebo zaregistrujte ZDARMA.

Přidán záznam na opravu dat 3%.


24 črc 2018, 20:07
Profil
Warrant
Warrant

Registrován: 15 črc 2008, 21:29
Příspěvky: 199
Příspěvek Re: Včelka Mája:Medové hry / Maya the Bee:The Honey Games (2

Včelka Mája: Medové hry / Maya the Bee: The Honey Games (2018) [BR-RIP]

Animovaný / Rodinný / Komedie
V Májině úlu to bzučí vzrušením, už dokončili letní sklizeň a z Buzztropolis přijel vysoký hodnostář s důležitým vzkazem pro královnu. Obdrží její úl už konečně pozvánku na Velké medové hry? Ale Májino nadšení rychle opadne, když zjistí, že její úl nejenže se nesmí soutěže zúčastnit, ale že císařovna také požaduje, aby její úl odevzdal polovinu letní sklizně medu jako příspěvek na výživu atletů soutěžících na Velkých medových hrách. V rozporu s přáním královny se Mája rozhodne odjet do Buzztropolis a osobně se postavit před císařovnu.

INFO:
Jen registrovaní uživatelé mohou vidět odkazy v code. Přihlaste se nebo zaregistrujte ZDARMA.


Re: Včelka Mája:Medové hry / Maya the Bee:The Honey Games (2
________________________________________________________________________________

5269 MB

Video: 1920x1040 - AVC/H264 - 23.976 fps - 5.8 Mbps
Audio: CZ dabing - AC3 5.1 - 448 Kbps
Audio: SK dabing - AC3 5.1 - 448 Kbps
Audio: ENG - DTS 5.1 - 1.5 Mbps
Titulky: ENG
Čas: 1:24:48

MediaInfo
General
Format : Matroska
Format version : Version 4 / Version 2
File size : 4.91 GiB
Duration : 1 h 24 min
Overall bit rate : 8 283 kb/s
Writing application : Lavf57.83.100
Writing library : Lavf57.83.100
ErrorDetectionType : Per level 1

Video
ID : 1
Format : AVC
Format/Info : Advanced Video Codec
Format profile : [email protected]
Format settings : CABAC / 4 Ref Frames
Format settings, CABAC : Yes
Format settings, RefFrames : 4 frames
Codec ID : V_MPEG4/ISO/AVC
Duration : 1 h 24 min
Bit rate : 5 867 kb/s
Width : 1 920 pixels
Height : 1 040 pixels
Display aspect ratio : 1.85:1
Frame rate mode : Constant
Frame rate : 23.976 FPS
Color space : YUV
Chroma subsampling : 4:2:0
Bit depth : 8 bits
Scan type : Progressive
Bits/(Pixel*Frame) : 0.123
Stream size : 3.38 GiB (69%)
Writing library : x264 core 155 r2901 7d0ff22
Encoding settings : cabac=1 / ref=4 / deblock=1:0:0 / analyse=0x3:0x133 / me=umh / subme=7 / psy=1 / psy_rd=1.00:0.00 / mixed_ref=1 / me_range=16 / chroma_me=1 / trellis=1 / 8x8dct=1 / cqm=0 / deadzone=21,11 / fast_pskip=0 / chroma_qp_offset=-2 / threads=30 / lookahead_threads=5 / sliced_threads=0 / nr=0 / decimate=1 / interlaced=0 / bluray_compat=0 / constrained_intra=0 / bframes=3 / b_pyramid=2 / b_adapt=1 / b_bias=0 / direct=1 / weightb=1 / open_gop=0 / weightp=2 / keyint=250 / keyint_min=23 / scenecut=40 / intra_refresh=0 / rc_lookahead=40 / rc=2pass / mbtree=1 / bitrate=5867 / ratetol=1.0 / qcomp=0.60 / qpmin=0 / qpmax=69 / qpstep=4 / cplxblur=20.0 / qblur=0.5 / ip_ratio=1.40 / aq=1:1.00
Default : Yes
Forced : No

Audio #1
ID : 2
Format : AC-3
Format/Info : Audio Coding 3
Codec ID : A_AC3
Duration : 1 h 24 min
Bit rate mode : Constant
Bit rate : 448 kb/s
Channel(s) : 6 channels
Channel positions : Front: L C R, Side: L R, LFE
Sampling rate : 48.0 kHz
Frame rate : 31.250 FPS (1536 SPF)
Bit depth : 16 bits
Compression mode : Lossy
Stream size : 272 MiB (5%)
Language : Czech
Service kind : Complete Main
Default : Yes
Forced : No

Audio #2
ID : 3
Format : AC-3
Format/Info : Audio Coding 3
Codec ID : A_AC3
Duration : 1 h 24 min
Bit rate mode : Constant
Bit rate : 448 kb/s
Channel(s) : 6 channels
Channel positions : Front: L C R, Side: L R, LFE
Sampling rate : 48.0 kHz
Frame rate : 31.250 FPS (1536 SPF)
Bit depth : 16 bits
Compression mode : Lossy
Stream size : 272 MiB (5%)
Language : Slovak
Service kind : Complete Main
Default : No
Forced : No

Audio #3
ID : 4
Format : DTS
Format/Info : Digital Theater Systems
Codec ID : A_DTS
Duration : 1 h 24 min
Bit rate mode : Constant
Bit rate : 1 509 kb/s
Channel(s) : 6 channels
Channel positions : Front: L C R, Side: L R, LFE
Sampling rate : 48.0 kHz
Frame rate : 93.750 FPS (512 SPF)
Bit depth : 24 bits
Compression mode : Lossy
Stream size : 915 MiB (18%)
Language : English
Default : No
Forced : No

Text
ID : 5
Format : UTF-8
Codec ID : S_TEXT/UTF8
Codec ID/Info : UTF-8 Plain Text
Duration : 1 h 21 min
Writing library : Lavc57.107.100 srt
Language : English
Default : No
Forced : No

FullHD - AVC
Jen registrovaní uživatelé mohou vidět odkazy v code. Přihlaste se nebo zaregistrujte ZDARMA.

________________________________________________________________________________


24 črc 2018, 21:00
Profil
Zobrazit příspěvky za předchozí:  Seřadit podle  
Odeslat nové téma Odpovědět na téma  [ Příspěvků: 2 ] 

Všechny časy jsou v UTC + 1 hodina


Nemůžete zakládat nová témata v tomto fóru
Nemůžete odpovídat v tomto fóru
Nemůžete upravovat své příspěvky v tomto fóru
Nemůžete mazat své příspěvky v tomto fóru
Nemůžete přikládat soubory v tomto fóru









StahovaniZaSMS Pizza Modena MP3 free download