fastshare
Finální ukrutnost / Outrage Coda (2017)
Vypnout statistiky
KATEGORIEPOSLEDNÍ PŘÍSPĚVKYPOSLEDNÍ OZNÁMENÍSTATISTIKY UŽIVATELE
Nick: Anonymous
Příspěvků: 3361
Hodnost: Warman
Varování: 0
---
Právě je 22 zář 2018, 05:10





Všechny časy jsou v UTC + 1 hodina


Pravidla fóra







Odeslat nové téma Odpovědět na téma  [ Příspěvků: 3 ] 
 Finální ukrutnost / Outrage Coda (2017) 
Autor Zpráva
Warrant
Warrant

Registrován: 15 črc 2008, 21:29
Příspěvky: 179
Příspěvek Finální ukrutnost / Outrage Coda (2017)

Finální ukrutnost / Outrage Coda (2017) [BR-RIP]

Krimi / Akční / Thriller
Thriller "Finální ukrutnost" je posledním dílem „Outrage“ trilogie režiséra Takešiho Kitana, která se odehrává v prostředí japonského podsvětí, kde probíhá boj o moc nad spojenými klany plný divokých přestřelek, hořících restaurací a těl po krk zakopaných na rušné silnici. Pět let poté, co přežil totální válku mezi zločineckými rodinami Sanno a Hanabishi, pracuje bývalý šéf jakuzy Otomo v Jižní Koreji pro pana Changa, proslulého vyjednavače, jehož vliv sahá až do Japonska. Relativně bezvýznamná událost vede k nárůstu napětí mezi společností Chang Enterprises a vzdáleným mocným Hanabishim.

INFO:
Jen registrovaní uživatelé mohou vidět odkazy v code. Přihlaste se nebo zaregistrujte ZDARMA.


Finální ukrutnost / Outrage Coda (2017)
________________________________________________________________________________

8396 MB

Video: 1920x808 - AVC/H264 - 23.976 fps - 8.9 Mbps
Audio: CZ dabing - AC3 2.0 - 224 Kbps
Audio: JPN - DTS 5.1 - 1.5 Mbps
Titulky: forced CZ + ENG
Čas: 1:44:45

MediaInfo
General
Format : Matroska
Format version : Version 4 / Version 2
File size : 7.82 GiB
Duration : 1 h 44 min
Overall bit rate : 10.7 Mb/s
Writing application : Lavf57.83.100
Writing library : Lavf57.83.100
ErrorDetectionType : Per level 1

Video
ID : 1
Format : AVC
Format/Info : Advanced Video Codec
Format profile : [email protected]
Format settings : CABAC / 5 Ref Frames
Format settings, CABAC : Yes
Format settings, RefFrames : 5 frames
Codec ID : V_MPEG4/ISO/AVC
Duration : 1 h 44 min
Bit rate : 8 948 kb/s
Width : 1 920 pixels
Height : 808 pixels
Display aspect ratio : 2.40:1
Frame rate mode : Constant
Frame rate : 23.976 (24000/1001) FPS
Color space : YUV
Chroma subsampling : 4:2:0
Bit depth : 8 bits
Scan type : Progressive
Bits/(Pixel*Frame) : 0.241
Stream size : 6.39 GiB (82%)
Writing library : x264 core 155 r2901 7d0ff22
Encoding settings : cabac=1 / ref=5 / deblock=1:-3:-3 / analyse=0x3:0x133 / me=umh / subme=9 / psy=1 / psy_rd=1.00:0.00 / mixed_ref=1 / me_range=16 / chroma_me=1 / trellis=2 / 8x8dct=1 / cqm=0 / deadzone=21,11 / fast_pskip=0 / chroma_qp_offset=-2 / threads=24 / lookahead_threads=2 / sliced_threads=0 / nr=0 / decimate=1 / interlaced=0 / bluray_compat=0 / constrained_intra=0 / bframes=3 / b_pyramid=2 / b_adapt=1 / b_bias=0 / direct=3 / weightb=1 / open_gop=0 / weightp=2 / keyint=240 / keyint_min=24 / scenecut=40 / intra_refresh=0 / rc_lookahead=50 / rc=2pass / mbtree=1 / bitrate=8948 / ratetol=1.0 / qcomp=0.60 / qpmin=0 / qpmax=69 / qpstep=4 / cplxblur=20.0 / qblur=0.5 / ip_ratio=1.40 / aq=1:1.00
Default : Yes
Forced : No

Audio #1
ID : 2
Format : AC-3
Format/Info : Audio Coding 3
Codec ID : A_AC3
Duration : 1 h 44 min
Bit rate mode : Constant
Bit rate : 224 kb/s
Channel(s) : 2 channels
Channel positions : Front: L R
Sampling rate : 48.0 kHz
Frame rate : 31.250 FPS (1536 SPF)
Bit depth : 16 bits
Compression mode : Lossy
Stream size : 168 MiB (2%)
Language : Czech
Service kind : Complete Main
Default : Yes
Forced : No

Audio #2
ID : 3
Format : DTS
Format/Info : Digital Theater Systems
Codec ID : A_DTS
Duration : 1 h 44 min
Bit rate mode : Constant
Bit rate : 1 509 kb/s
Channel(s) : 6 channels
Channel positions : Front: L C R, Side: L R, LFE
Sampling rate : 48.0 kHz
Frame rate : 93.750 FPS (512 SPF)
Bit depth : 24 bits
Compression mode : Lossy
Stream size : 1.10 GiB (14%)
Language : Japanese
Default : No
Forced : No

Text #1
ID : 4
Format : UTF-8
Codec ID : S_TEXT/UTF8
Codec ID/Info : UTF-8 Plain Text
Duration : 1 h 29 min
Title : forced
Writing library : Lavc57.107.100 srt
Language : Czech
Default : Yes
Forced : No

Text #2
ID : 5
Format : UTF-8
Codec ID : S_TEXT/UTF8
Codec ID/Info : UTF-8 Plain Text
Duration : 1 h 44 min
Writing library : Lavc57.107.100 srt
Language : English
Default : No
Forced : No

FullHD - AVC
Jen registrovaní uživatelé mohou vidět odkazy v code. Přihlaste se nebo zaregistrujte ZDARMA.

________________________________________________________________________________


23 črc 2018, 13:12
Profil
Colonel
Colonel

Registrován: 10 čer 2018, 20:41
Příspěvky: 362
Příspěvek Re: Finální ukrutnost / Outrage Coda (2017)

Outrage.Coda.2017.1080p.BluRay.x264.AC3.CZ


Re: Finální ukrutnost / Outrage Coda (2017)


Jen registrovaní uživatelé mohou vidět odkazy v code. Přihlaste se nebo zaregistrujte ZDARMA.



Jen registrovaní uživatelé mohou vidět odkazy v code. Přihlaste se nebo zaregistrujte ZDARMA.



Jen registrovaní uživatelé mohou vidět odkazy v code. Přihlaste se nebo zaregistrujte ZDARMA.


23 črc 2018, 14:15
Profil
Warman
Warman

Registrován: 26 kvě 2015, 00:50
Příspěvky: 1360
Příspěvek Re: Finální ukrutnost / Outrage Coda (2017)

Finální ukrutnost / Outrage Coda (2017)

CSFD:

Jen registrovaní uživatelé mohou vidět odkazy v code. Přihlaste se nebo zaregistrujte ZDARMA.


Re: Finální ukrutnost / Outrage Coda (2017)

Outrage.Coda.2017.720p.BluRay.x264.CZ
Outrage.Coda.2017.1080p.BluRay.x264.CZ


Outrage.Coda.2017.720p.BluRay.x264.CZ
Jazyk: Czech 2.0 224 Kbps , Japanese 5.1 640 Kbps
Subtitles: Czech forced , Czech

iNFO

Jen registrovaní uživatelé mohou vidět odkazy v code. Přihlaste se nebo zaregistrujte ZDARMA.


Re: Finální ukrutnost / Outrage Coda (2017)
Jen registrovaní uživatelé mohou vidět odkazy v code. Přihlaste se nebo zaregistrujte ZDARMA.

Jen registrovaní uživatelé mohou vidět odkazy v code. Přihlaste se nebo zaregistrujte ZDARMA.

Přidán záznam na opravu dat 3%.

Outrage.Coda.2017.1080p.BluRay.x264.CZ
Jazyk: Czech 2.0 224 Kbps , Japanese 5.1 640 Kbps
Subtitles: Czech forced , Czech

iNFO

Jen registrovaní uživatelé mohou vidět odkazy v code. Přihlaste se nebo zaregistrujte ZDARMA.


Re: Finální ukrutnost / Outrage Coda (2017)
Jen registrovaní uživatelé mohou vidět odkazy v code. Přihlaste se nebo zaregistrujte ZDARMA.

Jen registrovaní uživatelé mohou vidět odkazy v code. Přihlaste se nebo zaregistrujte ZDARMA.

Přidán záznam na opravu dat 3%.


23 črc 2018, 20:24
Profil
Zobrazit příspěvky za předchozí:  Seřadit podle  
Odeslat nové téma Odpovědět na téma  [ Příspěvků: 3 ] 

Všechny časy jsou v UTC + 1 hodina


Nemůžete zakládat nová témata v tomto fóru
Nemůžete odpovídat v tomto fóru
Nemůžete upravovat své příspěvky v tomto fóru
Nemůžete mazat své příspěvky v tomto fóru
Nemůžete přikládat soubory v tomto fóru









StahovaniZaSMS Pizza Modena MP3 free download