fastshare
Zabití Jesseho Jamese zbabělcem Robertem Fordem (2007)
Vypnout statistiky
KATEGORIEPOSLEDNÍ PŘÍSPĚVKYPOSLEDNÍ OZNÁMENÍSTATISTIKY UŽIVATELE
Nick: Anonymous
Příspěvků: 3361
Hodnost: Warman
Varování: 0
---
Právě je 15 srp 2018, 10:05





Všechny časy jsou v UTC + 1 hodina


Pravidla fóra







Odeslat nové téma Odpovědět na téma  [ Příspěvků: 2 ] 
 Zabití Jesseho Jamese zbabělcem Robertem Fordem (2007) 
Autor Zpráva
Master Sergant
Master Sergant

Registrován: 14 črc 2007, 19:29
Příspěvky: 135
Příspěvek Zabití Jesseho Jamese zbabělcem Robertem Fordem (2007)

Zabití Jesseho Jamese zbabělcem Robertem Fordem /
The Assassination Of Jesse James By The Coward Robert Ford (2007)


1080p CZ

Jen registrovaní uživatelé mohou vidět odkazy v code. Přihlaste se nebo zaregistrujte ZDARMA.


13,5 GiB
MediaInfo:
Jen registrovaní uživatelé mohou vidět odkazy v code. Přihlaste se nebo zaregistrujte ZDARMA.

DELETED


Naposledy upravil ladan dne 01 kvě 2018, 20:25, celkově upraveno 1
Smazány nefunkční odkazy a obrázky


08 bře 2009, 02:34
Profil
Army General
Army General

Registrován: 21 črc 2009, 11:51
Příspěvky: 933
Příspěvek Zabití Jesseho Jamese zbabělcem Robertem Fordem (2007)

Zabití Jesseho Jamese zbabělcem Robertem Fordem / 1080p / CZ

Zabití Jesseho Jamese zbabělcem Robertem Fordem (2007)

Jen registrovaní uživatelé mohou vidět odkazy v code. Přihlaste se nebo zaregistrujte ZDARMA.


GENERAL 1080p CZ 13.5 GiB
MediaInfo:
[code]Format : Matroska
File size : 13.5 GiB
Duration : 2h 39mn
Overall bit rate : 12.1 Mbps
Encoded date : UTC 2008-12-25 22:20:32
Writing application : mkvmerge v2.4.0 ('Fumbling Towards Ecstasy') built on Oct 11 2008 20:13:15
Writing library : libebml v0.7.7 + libmatroska v0.8.1

Video
ID : 1
Format : AVC
Format/Info : Advanced Video Codec
Format profile : [email protected]
Format settings, CABAC : Yes
Format settings, ReFrames : 7 frames
Codec ID : V_MPEG4/ISO/AVC
Duration : 2h 39mn
Bit rate : 11.1 Mbps
Width : 1 920 pixels
Height : 800 pixels
Display aspect ratio : 2.40:1
Frame rate : 23.976 fps
Color space : YUV
Chroma subsampling : 4:2:0
Bit depth : 8 bits
Scan type : Progressive
Bits/(Pixel*Frame) : 0.302
Stream size : 12.1 GiB (90%)
Title : GrupoHDS
Writing library : x264 core 58 svn-736M
Encoding settings : cabac=1 / ref=7 / deblock=1:-3:-3 / analyse=0x3:0x133 / me=umh / subme=7 / me-prepass=0 / brdo=1 / mixed_ref=1 / me_range=16 / chroma_me=1 / trellis=0 / 8x8dct=1 / cqm=2 / deadzone=6,4 / chroma_qp_offset=0 / threads=6 / nr=0 / decimate=0 / mbaff=0 / bframes=16 / b_pyramid=1 / b_adapt=1 / b_bias=0 / direct=3 / wpredb=1 / bime=1 / keyint=250 / keyint_min=25 / scenecut=40(pre) / rc=2pass / bitrate=11116 / ratetol=1.0 / rceq='blurCplx^(1-qComp)' / qcomp=1.00 / qpmin=10 / qpmax=51 / qpstep=4 / cplxblur=20.0 / qblur=0.5 / ip_ratio=1.40 / pb_ratio=1.30 / aq=1:0.5:13.0
Language : English

Audio #1
ID : 2
Format : AC-3
Format/Info : Audio Coding 3
Mode extension : CM (complete main)
Codec ID : A_AC3
Duration : 2h 39mn
Bit rate mode : Constant
Bit rate : 384 Kbps
Channel(s) : 6 channels
Channel positions : Front: L C R, Side: L R, LFE
Sampling rate : 48.0 KHz
Bit depth : 16 bits
Compression mode : Lossy
Delay relative to video : 800ms
Stream size : 439 MiB (3%)
Language : Czech

Audio #2
ID : 3
Format : AC-3
Format/Info : Audio Coding 3
Mode extension : CM (complete main)
Codec ID : A_AC3
Duration : 2h 39mn
Bit rate mode : Constant
Bit rate : 640 Kbps
Channel(s) : 6 channels
Channel positions : Front: L C R, Side: L R, LFE
Sampling rate : 48.0 KHz
Bit depth : 16 bits
Compression mode : Lossy
Stream size : 731 MiB (5%)
Language : English

Text
ID : 4
Format : UTF-8
Codec ID : S_TEXT/UTF8
Codec ID/Info : UTF-8 Plain Text
Language : Czech
[code]

DELETED


Naposledy upravil ladan dne 01 kvě 2018, 20:29, celkově upraveno 1
Smazány nefunkční odkazy a obrázky


14 kvě 2011, 11:24
Profil
Zobrazit příspěvky za předchozí:  Seřadit podle  
Odeslat nové téma Odpovědět na téma  [ Příspěvků: 2 ] 

Všechny časy jsou v UTC + 1 hodina


Nemůžete zakládat nová témata v tomto fóru
Nemůžete odpovídat v tomto fóru
Nemůžete upravovat své příspěvky v tomto fóru
Nemůžete mazat své příspěvky v tomto fóru
Nemůžete přikládat soubory v tomto fóru









StahovaniZaSMS Pizza Modena MP3 free download