fastshare
14 ostří / Jin yi wei (2010)
Vypnout statistiky
KATEGORIEPOSLEDNÍ PŘÍSPĚVKYPOSLEDNÍ OZNÁMENÍSTATISTIKY UŽIVATELE
Nick: Anonymous
Příspěvků: 3367
Hodnost: Warman
Varování: 0
---
Právě je 22 kvě 2018, 09:03





Všechny časy jsou v UTC + 1 hodina


Pravidla fóra







Odeslat nové téma Odpovědět na téma  [ Příspěvků: 3 ] 
 14 ostří / Jin yi wei (2010) 
Autor Zpráva
Major
Major

Registrován: 18 črc 2009, 07:35
Příspěvky: 305
Příspěvek 14 ostří / Jin yi wei (2010)

14.Blades.2010.1080p.BluRay.DTS.x264-EbP ( CHI,CZ )

14 ostří / Jin yi wei (2010)

info:

Jen registrovaní uživatelé mohou vidět odkazy v code. Přihlaste se nebo zaregistrujte ZDARMA.


iNFO:

Jen registrovaní uživatelé mohou vidět odkazy v code. Přihlaste se nebo zaregistrujte ZDARMA.


Sample:

Jen registrovaní uživatelé mohou vidět odkazy v code. Přihlaste se nebo zaregistrujte ZDARMA.



Netload:

Jen registrovaní uživatelé mohou vidět odkazy v code. Přihlaste se nebo zaregistrujte ZDARMA.


Fileserve:

Jen registrovaní uživatelé mohou vidět odkazy v code. Přihlaste se nebo zaregistrujte ZDARMA.


Hellshare:

Jen registrovaní uživatelé mohou vidět odkazy v code. Přihlaste se nebo zaregistrujte ZDARMA.


Share-rapid:

Jen registrovaní uživatelé mohou vidět odkazy v code. Přihlaste se nebo zaregistrujte ZDARMA.



Uploady su balené "Bez Kompresie".
Linky sú kombinovateľné, ak je ich rovnaký počet a veľkosť súboru.
Archívy nezálohujem, nežiadajte o reupload.
Pridaný záznam pre opravu dat.


09 lis 2010, 16:32
Profil
Army General
Army General

Registrován: 21 črc 2009, 11:51
Příspěvky: 933
Příspěvek Re: 14 ostří / Jin yi wei (2010)

14 Ostří/ 2010 / 1080p / DTS CHI / DD 5.1 CZ
Re: 14 ostří / Jin yi wei (2010)

Re: 14 ostří / Jin yi wei (2010)
Jen registrovaní uživatelé mohou vidět odkazy v code. Přihlaste se nebo zaregistrujte ZDARMA.



Re: 14 ostří / Jin yi wei (2010)
GENERAL DVDRip
Citace:
Format : Matroska
File size : 11.0 GiB
Duration : 1h 52mn
Overall bit rate : 13.9 Mbps

Encoded date : UTC 2010-11-08 16:58:04

Writing library : libebml v1.0.0 + libmatroska v1.0.0

Video
ID : 1
Format : AVC
Format/Info : Advanced Video Codec
Format profile : [email protected]
Format settings, CABAC : Yes
Format settings, ReFrames : 5 frames
Muxing mode : Container [email protected]
Codec ID : V_MPEG4/ISO/AVC
Duration : 1h 52mn
Bit rate : 12.0 Mbps
Width : 1 920 pixels
Height : 816 pixels
Display aspect ratio : 2.35:1
Frame rate : 24.000 fps
Color space : YUV
Chroma subsampling : 4:2:0
Bit depth : 8 bits
Scan type : Progressive
Bits/(Pixel*Frame) : 0.319
Stream size : 9.22 GiB (84%)
Title : Gam yee wai (2010)
Writing library : x264 core 93 r1538 bd72d46
Encoding settings : cabac=1 / ref=5 / deblock=1:-3:-3 / analyse=0x3:0x113 / me=umh / subme=10 / psy=1 / psy_rd=1.00:0.00 / mixed_ref=1 / me_range=48 / chroma_me=1 / trellis=2 / 8x8dct=1 / cqm=0 / deadzone=21,11 / fast_pskip=0 / chroma_qp_offset=-2 / threads=12 / sliced_threads=0 / nr=0 / decimate=0 / interlaced=0 / constrained_intra=0 / bframes=6 / b_pyramid=2 / b_adapt=2 / b_bias=0 / direct=3 / wpredb=1 / wpredp=2 / keyint=250 / keyint_min=25 / scenecut=40 / intra_refresh=0 / rc=2pass / mbtree=0 / bitrate=12000 / ratetol=1.0 / qcomp=0.60 / qpmin=10 / qpmax=51 / qpstep=4 / cplxblur=20.0 / qblur=0.5 / ip_ratio=1.40 / pb_ratio=1.30 / aq=1:0.60
Language : Chinese

Audio #1
ID : 2
Format : AC-3
Format/Info : Audio Coding 3
Mode extension : CM (complete main)
Codec ID : A_AC3
Duration : 1h 52mn
Bit rate mode : Constant
Bit rate : 448 Kbps
Channel(s) : 6 channels
Channel positions : Front: L C R, Side: L R, LFE
Sampling rate : 48.0 KHz
Bit depth : 16 bits
Stream size : 362 MiB (3%)
Title : DD 5.1 [email protected]
Language : Czech

Audio #2
ID : 3
Format : DTS
Format/Info : Digital Theater Systems
Codec ID : A_DTS
Duration : 1h 52mn
Bit rate mode : Constant
Bit rate : 1 510 Kbps
Channel(s) : 6 channels
Channel positions : Front: L C R, Side: L R, LFE
Sampling rate : 48.0 KHz
Bit depth : 24 bits
Stream size : 1.19 GiB (11%)
Title : DTS core 5.1 @ 1.5 mbps
Language : Chinese

Subtitle : English, Czech
heslo : gogo



Re: 14 ostří / Jin yi wei (2010)
Re: 14 ostří / Jin yi wei (2010)
Jen registrovaní uživatelé mohou vidět odkazy v code. Přihlaste se nebo zaregistrujte ZDARMA.


Re: 14 ostří / Jin yi wei (2010)
Re: 14 ostří / Jin yi wei (2010)
Jen registrovaní uživatelé mohou vidět odkazy v code. Přihlaste se nebo zaregistrujte ZDARMA.


21 úno 2011, 19:04
Profil
Colonel 2 nd class
Colonel 2 nd class

Registrován: 28 bře 2009, 12:32
Příspěvky: 409
Příspěvek Re: 14 ostří / Jin yi wei (2010)

Re: 14 ostří / Jin yi wei (2010)

Re: 14 ostří / Jin yi wei (2010)

Jen registrovaní uživatelé mohou vidět odkazy v code. Přihlaste se nebo zaregistrujte ZDARMA.



Re: 14 ostří / Jin yi wei (2010)
Citace:
Formát : Matroska
Velikost souboru : 11,0 GiB
Duration/String : 1h 52mn
Celkový BitRate : 13,9 Mbps
Název filmu : 14.Blades.2010.1080p.BluRay.DTS.x264-EbP.CZ
Encoded date : UTC 2010-11-08 16:58:04
Použitý software : mkvmerge v4.0.0 ('The Stars were mine') built on Jun 5 2010 17:44:09
Enkódoval : libebml v1.0.0 + libmatroska v1.0.0

Video
ID : 1
Formát : AVC
Formát/ : Advanced Video Codec
Format_Profile : [email protected]
Format_Settings_CABAC/String : Ano
Format_Settings_RefFrames/String : 5 frame
CodecID : V_MPEG4/ISO/AVC
Duration/String : 1h 52mn
Bit rate : 12,0 Mbps
Šířka : 1 920pixely
Výška : 816pixely
Poměr stran : 2,35:1
Frame rate : 24,000 fps
ColorSpace : YUV
ChromaSubsampling : 4:2:0
BitDepth/String : 8 bits
ScanType/String : Progressive
Bits/(Pixel*Frame) : 0.319
StreamSize/String : 9,22 GiB (84%)
Titul : Gam yee wai (2010)
Enkódoval : x264 core 93 r1538 bd72d46
Nastavení enkoderu : cabac=1 / ref=5 / deblock=1:-3:-3 / analyse=0x3:0x113 / me=umh / subme=10 / psy=1 / psy_rd=1.00:0.00 / mixed_ref=1 / me_range=48 / chroma_me=1 / trellis=2 / 8x8dct=1 / cqm=0 / deadzone=21,11 / fast_pskip=0 / chroma_qp_offset=-2 / threads=12 / sliced_threads=0 / nr=0 / decimate=0 / interlaced=0 / constrained_intra=0 / bframes=6 / b_pyramid=2 / b_adapt=2 / b_bias=0 / direct=3 / wpredb=1 / wpredp=2 / keyint=250 / keyint_min=25 / scenecut=40 / intra_refresh=0 / rc=2pass / mbtree=0 / bitrate=12000 / ratetol=1.0 / qcomp=0.60 / qpmin=10 / qpmax=51 / qpstep=4 / cplxblur=20.0 / qblur=0.5 / ip_ratio=1.40 / pb_ratio=1.30 / aq=1:0.60
Jazyk : Chinese

Audio #1
ID : 2
Formát : AC-3
Formát/ : Audio Coding 3
Format_Settings_ModeExtension : CM (complete main)
CodecID : A_AC3
Duration/String : 1h 52mn
Bit rate : 448 Kbps
Kanál(y) : 6 kanály
Channel positions : Front: L C R, Side: L R, LFE
Sampling rate : 48,0 KHz
BitDepth/String : 16 bits
StreamSize/String : 362 MiB (3%)
Titul : DD 5.1 [email protected]
Jazyk : Czech

Audio #2
ID : 3
Formát : DTS
Formát/ : Digital Theater Systems
CodecID : A_DTS
Duration/String : 1h 52mn
Bit rate : 1 510 Kbps
Kanál(y) : 6 kanály
Channel positions : Front: L C R, Side: L R, LFE
Sampling rate : 48,0 KHz
BitDepth/String : 24 bits
StreamSize/String : 1,19 GiB (11%)
Titul : DTS core 5.1 @ 1.5 mbps
Jazyk : Chinese

Text #1
ID : 4
Formát : UTF-8
CodecID : S_TEXT/UTF8
/ : UTF-8 Plain Text
Titul : en subtitles
Jazyk : English

Text #2
ID : 5
Formát : UTF-8
CodecID : S_TEXT/UTF8
/ : UTF-8 Plain Text
Titul : cz titulky
Jazyk : Czech



Re: 14 ostří / Jin yi wei (2010)
Jen registrovaní uživatelé mohou vidět odkazy v code. Přihlaste se nebo zaregistrujte ZDARMA.


Re: 14 ostří / Jin yi wei (2010)
Jen registrovaní uživatelé mohou vidět odkazy v code. Přihlaste se nebo zaregistrujte ZDARMA.



Re: 14 ostří / Jin yi wei (2010)
Jen registrovaní uživatelé mohou vidět odkazy v code. Přihlaste se nebo zaregistrujte ZDARMA.




Re: 14 ostří / Jin yi wei (2010)
Přidán záznam na opravu dat 5%


22 úno 2011, 18:43
Profil
Zobrazit příspěvky za předchozí:  Seřadit podle  
Odeslat nové téma Odpovědět na téma  [ Příspěvků: 3 ] 

Všechny časy jsou v UTC + 1 hodina


Nemůžete zakládat nová témata v tomto fóru
Nemůžete odpovídat v tomto fóru
Nemůžete upravovat své příspěvky v tomto fóru
Nemůžete mazat své příspěvky v tomto fóru
Nemůžete přikládat soubory v tomto fóru









StahovaniZaSMS Pizza Modena MP3 free download