fastshare
A-Team / A Team / A-Team, The (2010)
Vypnout statistiky
KATEGORIEPOSLEDNÍ PŘÍSPĚVKYPOSLEDNÍ OZNÁMENÍSTATISTIKY UŽIVATELE
Nick: Anonymous
Příspěvků: 3361
Hodnost: Warman
Varování: 0
---
Právě je 26 zář 2018, 07:54





Všechny časy jsou v UTC + 1 hodina


Pravidla fóra







Odeslat nové téma Odpovědět na téma  [ Příspěvků: 10 ] 
 A-Team / A Team / A-Team, The (2010) 
Autor Zpráva
Major
Major

Registrován: 18 črc 2009, 07:35
Příspěvky: 305
Příspěvek A-Team / A Team / A-Team, The (2010)

The.A-Team.Extended.Cut.2010.1080p.BluRay.x264.DTS-WiKi ( EN,CZ )

A-Team / A Team / A-Team, The (2010)

info:

Jen registrovaní uživatelé mohou vidět odkazy v code. Přihlaste se nebo zaregistrujte ZDARMA.


iNFO:

Jen registrovaní uživatelé mohou vidět odkazy v code. Přihlaste se nebo zaregistrujte ZDARMA.


Sample: - DELETED

Netload:
Jen registrovaní uživatelé mohou vidět odkazy v code. Přihlaste se nebo zaregistrujte ZDARMA.

Fileserve: - DELETED
Hotfile: - DELETED


Hellshare:
Jen registrovaní uživatelé mohou vidět odkazy v code. Přihlaste se nebo zaregistrujte ZDARMA.


Share-rapid:
Jen registrovaní uživatelé mohou vidět odkazy v code. Přihlaste se nebo zaregistrujte ZDARMA.



Uploady su balené "Bez Kompresie".
Linky sú kombinovateľné, ak je ich rovnaký počet a veľkosť súboru.
Archívy nezálohujem, nežiadajte o reupload.
Pridaný záznam pre opravu dat.


Naposledy upravil ladan dne 22 zář 2013, 14:39, celkově upraveno 3
Smazány nefunkční odkazy


18 lis 2010, 11:09
Profil
Corporal
Corporal

Registrován: 13 dub 2009, 20:30
Příspěvky: 67
Příspěvek Re: A-Team / A-Team, The (2010)

A-Team / A-Team, The (2010) 1080p

.:INFO:.
File size : 12.3 GiB
Duration : 2h 13mn
Width : 1 920 pixels
Height : 816 pixels
Language : English(DTS 5.1), Czech(AC-3 5.1)
Titulky: Czech(+forced), English


.:MORE INFO:.
General
Format : Matroska
File size : 12.3 GiB
Duration : 2h 13mn
Overall bit rate : 13.2 Mbps
Encoded date : UTC 2010-11-18 06:37:29
Writing application : mkvmerge v3.0.0 ('Hang up your Hang-Ups') built on Dec 12 2009 15:20:35
Writing library : libebml v0.7.9 + libmatroska v0.8.1
Video #1
ID : 1
Format : AVC
Format/Info : Advanced Video Codec
Format profile : [email protected]
Format settings, CABAC : Yes
Format settings, ReFrames : 4 frames
Muxing mode : Container [email protected]
Codec ID : V_MPEG4/ISO/AVC
Duration : 2h 13mn
Bit rate : 11.0 Mbps
Nominal bit rate : 11.3 Mbps
Width : 1 920 pixels
Height : 816 pixels
Display aspect ratio : 2.35:1
Frame rate : 23.976 fps
Resolution : 24 bits
Colorimetry : 4:2:0
Scan type : Progressive
Bits/(Pixel*Frame) : 0.294
Stream size : 10.3 GiB (84%)
Writing library : x264 core 98 r1649 c54c47d
Encoding settings : cabac=1 / ref=4 / deblock=1:-3:-3 / analyse=0x3:0x113 / me=umh / subme=9 / psy=1 / psy_rd=1.10:0.00 / mixed_ref=1 / me_range=32 / chroma_me=1 / trellis=2 / 8x8dct=1 / cqm=0 / deadzone=21,11 / fast_pskip=0 / chroma_qp_offset=-4 / threads=6 / sliced_threads=0 / nr=0 / decimate=0 / interlaced=0 / constrained_intra=0 / bframes=6 / b_pyramid=2 / b_adapt=2 / b_bias=0 / direct=3 / weightb=1 / weightp=2 / keyint=250 / keyint_min=25 / scenecut=40 / intra_refresh=0 / rc_lookahead=48 / rc=2pass / mbtree=1 / bitrate=11337 / ratetol=1.0 / qcomp=0.60 / qpmin=10 / qpmax=51 / qpstep=4 / cplxblur=20.0 / qblur=0.5 / ip_ratio=1.40 / aq=1:0.80
Language : English
Audio #2
ID : 2
Format : AC-3
Format/Info : Audio Coding 3
Codec ID : A_AC3
Duration : 2h 13mn
Bit rate mode : Constant
Bit rate : 384 Kbps
Channel(s) : 6 channels
Channel positions : Front: L C R, Surround: L R, LFE
Sampling rate : 48.0 KHz
Stream size : 368 MiB (3%)
Language : Czech
Audio #3
ID : 3
Format : DTS
Format/Info : Digital Theater Systems
Codec ID : A_DTS
Duration : 2h 13mn
Bit rate mode : Constant
Bit rate : 1 510 Kbps
Channel(s) : 6 channels
Channel positions : Front: L C R, Surround: L R, LFE
Sampling rate : 48.0 KHz
Resolution : 24 bits
Stream size : 1.41 GiB (11%)
Language : English
Text #4
ID : 4
Format : UTF-8
Codec ID : S_TEXT/UTF8
Codec ID/Info : UTF-8 Plain Text
Title : Czech forced
Language : Czech
Text #5
ID : 5
Format : UTF-8
Codec ID : S_TEXT/UTF8
Codec ID/Info : UTF-8 Plain Text
Title : Czech
Language : Czech
Text #6
ID : 6
Format : UTF-8
Codec ID : S_TEXT/UTF8
Codec ID/Info : UTF-8 Plain Text
Title : English
Language : English

CSFD.CZ
76%
http://www.csfd.cz/film/238134-a-team/

.:HESLO:.
wartym.cz

.:999MB party, lze kombinovat :: multiload.cz :: multishare.cz :: hellshare.com :: share-rapid.com :: uloz.to :: quickshare.cz :: czshare.com :: badongo.com :: dataport.cz :: depositfiles.com :: megaupload.com :: megarapid.eu :: upnito.sk :: x7.to :: zshare.net :.

Jen registrovaní uživatelé mohou vidět odkazy v code. Přihlaste se nebo zaregistrujte ZDARMA.

Jen registrovaní uživatelé mohou vidět odkazy v code. Přihlaste se nebo zaregistrujte ZDARMA.

HESLO: wartym.cz


Naposledy upravil ladan dne 25 led 2012, 16:31, celkově upraveno 1
Smazány nefunkční odkazy a obrázky


21 lis 2010, 18:07
Profil
Private
Private

Registrován: 21 bře 2010, 02:42
Příspěvky: 15
Příspěvek Re: A-Team / The A-Team (2010)

A-Team / The A-Team (2010)

Re: A-Team / The A-Team (2010)

Re: A-Team / The A-Team (2010)

Re: A-Team / The A-Team (2010)
Jen registrovaní uživatelé mohou vidět odkazy v code. Přihlaste se nebo zaregistrujte ZDARMA.


Jen registrovaní uživatelé mohou vidět odkazy v code. Přihlaste se nebo zaregistrujte ZDARMA.


Re: A-Team / The A-Team (2010)

The.A-Team.EXTENDED.720p.BluRay.x264-ZMG

Jen registrovaní uživatelé mohou vidět odkazy v code. Přihlaste se nebo zaregistrujte ZDARMA.


Re: A-Team / The A-Team (2010)
Jen registrovaní uživatelé mohou vidět odkazy v code. Přihlaste se nebo zaregistrujte ZDARMA.

Re: A-Team / The A-Team (2010)
200 MB parts
Hotfile.com
Jen registrovaní uživatelé mohou vidět odkazy v code. Přihlaste se nebo zaregistrujte ZDARMA.

RapidShare.com
Jen registrovaní uživatelé mohou vidět odkazy v code. Přihlaste se nebo zaregistrujte ZDARMA.

MegaUpload.com
Jen registrovaní uživatelé mohou vidět odkazy v code. Přihlaste se nebo zaregistrujte ZDARMA.

Depositfiles.com
Jen registrovaní uživatelé mohou vidět odkazy v code. Přihlaste se nebo zaregistrujte ZDARMA.


900 MB parts
Share-Rapid.com
Jen registrovaní uživatelé mohou vidět odkazy v code. Přihlaste se nebo zaregistrujte ZDARMA.

HellShare.com
Jen registrovaní uživatelé mohou vidět odkazy v code. Přihlaste se nebo zaregistrujte ZDARMA.

Ulož.to
Jen registrovaní uživatelé mohou vidět odkazy v code. Přihlaste se nebo zaregistrujte ZDARMA.


Re: A-Team / The A-Team (2010)

The.A-Team.EXTENDED.1080p.BluRay.x264-ZMG

Jen registrovaní uživatelé mohou vidět odkazy v code. Přihlaste se nebo zaregistrujte ZDARMA.


Re: A-Team / The A-Team (2010)
Jen registrovaní uživatelé mohou vidět odkazy v code. Přihlaste se nebo zaregistrujte ZDARMA.

Re: A-Team / The A-Team (2010)
200 MB parts
Hotfile.com
Jen registrovaní uživatelé mohou vidět odkazy v code. Přihlaste se nebo zaregistrujte ZDARMA.

RapidShare.com
Jen registrovaní uživatelé mohou vidět odkazy v code. Přihlaste se nebo zaregistrujte ZDARMA.

MegaUpload.com
Jen registrovaní uživatelé mohou vidět odkazy v code. Přihlaste se nebo zaregistrujte ZDARMA.

Depositfiles.com
Jen registrovaní uživatelé mohou vidět odkazy v code. Přihlaste se nebo zaregistrujte ZDARMA.


900 MB parts
Share-Rapid.com
Jen registrovaní uživatelé mohou vidět odkazy v code. Přihlaste se nebo zaregistrujte ZDARMA.

HellShare.com
Jen registrovaní uživatelé mohou vidět odkazy v code. Přihlaste se nebo zaregistrujte ZDARMA.

Ulož.to
Jen registrovaní uživatelé mohou vidět odkazy v code. Přihlaste se nebo zaregistrujte ZDARMA.


Re: A-Team / The A-Team (2010)


30 lis 2010, 16:21
Profil
Colonel 2 nd class
Colonel 2 nd class
Uživatelský avatar

Registrován: 18 úno 2008, 17:27
Příspěvky: 428
Příspěvek A-Team / A-Team ,The (2010)

Název: A-Team ,The / A-Team ,The (2010)

Zdroj: The.A-Team.Extended.Cut.2010.1080p.BluRay.x264.DTS-WiKi.CZ.Eng.Cz

A-Team / A-Team ,The (2010)

A-Team / A-Team ,The (2010)

A-Team / A-Team ,The (2010)

http://www.csfd.cz/film/238134-a-team/
http://www.imdb.com/title/tt0429493/

A-Team / A-Team ,The (2010)

Citace:
Akční / Dobrodružný / Thriller
USA, 2010, 117 min[/color]

Režie: Joe Carnahan
Hrají: Liam Neeson, Bradley Cooper, Sharlto Copley, Quinton 'Rampage' Jackson, Jessica Biel, Patrick Wilson, Omari Hardwick, Brian Bloom, Dwight Schultz, Dirk Benedict, Yul Vazquez, Henry Czerny, Jon Hamm

Tihle čtyři chlapíci bývali vysoce kvalifikovanými a respektovanými členy elitní armádní jednotky. Byli obdivováni pro svůj mimořádný talent a schopnost zvládnout i ty nejtěžší mise, aniž by se u toho byť jen trochu zapotili. To platilo ovšem pouze do té doby, než byli nasazeni do přísně tajné mise, která byla připravena pouze k tomu, aby je dostala za mříže. A tam měli zůstat po zbytek života... Plukovník John 'Hannibal' Smith (Liam Neeson), poručík Templeton 'Hezoun' Peck (Bradley Cooper), seržant Bosco 'B.A.' Baracus (Quinton 'Rampage' Jackson) a kapitán H.M. 'Šílenec' Murdock (Sharlto Copley) jsou odsouzeni vojenským soudem a vsazeni do vězení s maximální ostrahou za zločin, který nespáchali. Válečným veteránům se ale podaří z vězení uprchnout a ukrýt se v podzemí Los Angeles. Stanou se z nich vyděděnci, psanci v zemi, kterou léta chránili a za kterou bojovali. Stále na útěku před "spravedlností" se z nich stávají žoldáci pomáhající lidem, kteří si jinou pomoc dovolit nemohou. (oficiální text distributora)

Complete name : D:\filmy download\Tnd.by.dadinek2.of.poweruploaders\The.A-Team.Extended.Cut.2010.1080p.BluRay.x264.DTS-WiKi.mkv
Format : Matroska
File size : 12.3 GiB
Duration : 2h 13mn
Overall bit rate : 13.2 Mbps
Encoded date : UTC 2010-11-18 01:24:10
Writing application : mkvmerge v4.0.0 ('The Stars were mine') built on Jun 5 2010 17:44:09
Writing library : libebml v1.0.0 + libmatroska v1.0.0

Video
ID : 1
Format : AVC
Format/Info : Advanced Video Codec
Format profile : [email protected]
Format settings, CABAC : Yes
Format settings, ReFrames : 4 frames
Muxing mode : Container [email protected]
Codec ID : V_MPEG4/ISO/AVC
Duration : 2h 13mn
Bit rate : 11.0 Mbps
Nominal bit rate : 11.3 Mbps
Width : 1 920 pixels
Height : 816 pixels
Display aspect ratio : 2.35
Frame rate : 23.976 fps
Resolution : 24 bits
Colorimetry : 4:2:0
Scan type : Progressive
Bits/(Pixel*Frame) : 0.294
Stream size : 10.3 GiB (84%)
Title : The.A-Team.Extended.Cut.2010.1080p.BluRay.x264.DTS-WiKi.CZ-GOGO
Writing library : x264 core 98 r1649 c54c47d
Encoding settings : cabac=1 / ref=4 / deblock=1:-3:-3 / analyse=0x3:0x113 / me=umh / subme=9 / psy=1 / psy_rd=1.10:0.00 / mixed_ref=1 / me_range=32 / chroma_me=1 / trellis=2 / 8x8dct=1 / cqm=0 / deadzone=21,11 / fast_pskip=0 / chroma_qp_offset=-4 / threads=6 / sliced_threads=0 / nr=0 / decimate=0 / interlaced=0 / constrained_intra=0 / bframes=6 / b_pyramid=2 / b_adapt=2 / b_bias=0 / direct=3 / weightb=1 / weightp=2 / keyint=250 / keyint_min=25 / scenecut=40 / intra_refresh=0 / rc_lookahead=48 / rc=2pass / mbtree=1 / bitrate=11337 / ratetol=1.0 / qcomp=0.60 / qpmin=10 / qpmax=51 / qpstep=4 / cplxblur=20.0 / qblur=0.5 / ip_ratio=1.40 / aq=1:0.80

Audio #1
ID : 2
Format : AC-3
Format/Info : Audio Coding 3
Codec ID : A_AC3
Duration : 2h 13mn
Bit rate mode : Constant
Bit rate : 384 Kbps
Channel(s) : 6 channels
Channel positions : Front: L C R, Surround: L R, LFE
Sampling rate : 48.0 KHz
Stream size : 368 MiB (3%)
Title : DD 5.1 [email protected]
Language : Czech

Audio #2
ID : 3
Format : DTS
Format/Info : Digital Theater Systems
Codec ID : A_DTS
Duration : 2h 13mn
Bit rate mode : Constant
Bit rate : 1 510 Kbps
Channel(s) : 6 channels
Channel positions : Front: L C R, Surround: L R, LFE
Sampling rate : 48.0 KHz
Resolution : 24 bits
Stream size : 1.41 GiB (11%)
Title : DTS [email protected],5Mb/s

Text #1
ID : 4
Format : UTF-8
Codec ID : S_TEXT/UTF8
Codec ID/Info : UTF-8 Plain Text
Title : forced cz titulky
Language : Czech

Text #2
ID : 5
Format : UTF-8
Codec ID : S_TEXT/UTF8
Codec ID/Info : UTF-8 Plain Text
Title : cz titulky
Language : Czech


A-Team / A-Team ,The (2010)

A-Team / A-Team ,The (2010)
Jen registrovaní uživatelé mohou vidět odkazy v code. Přihlaste se nebo zaregistrujte ZDARMA.



A-Team / A-Team ,The (2010)

Bez hesla!
Od 1.8.2011 přidán zaznam pro opravu dat 5%
Při rozbalování používejte výhradně WINRAR
Pokud je odkaz nefunkční kontaktujte mě pomocí SZ, PM
Pokud jsou Linky smazané provádím Reupload pouze na přání
WM nebo poděkování potěší a inspiruje mě do další práce :D
Za POWER UPLOADERS pro Vás nahrál dadinek2 !!
Enjoy


Naposledy upravil ladan dne 25 led 2012, 16:42, celkově upraveno 1
Úprava názvu a sloučení s dříve založeným téma


17 lis 2011, 21:49
Profil
Private
Private

Registrován: 02 črc 2010, 15:42
Příspěvky: 11
Příspěvek Re: A-Team / A-Team, The (2010)

The A-Team 720p

:-_-:

Re: A-Team / A-Team, The (2010)

__.__

23Fps
1280x544
6332 kbps
H264

AC3 5.1 [Cze] AC3 5.1 [eng]
48kHz


Jen a pouze 1 Part

)..(

Jen registrovaní uživatelé mohou vidět odkazy v code. Přihlaste se nebo zaregistrujte ZDARMA.


08 kvě 2013, 09:02
Profil
Corporal
Corporal
Uživatelský avatar

Registrován: 27 zář 2008, 20:19
Příspěvky: 75
Příspěvek A-Team (2010) Bluray

A-Team (2010) UNTOUCHED Prodložená verze

A-Team (2010) Bluray

Jen registrovaní uživatelé mohou vidět odkazy v code. Přihlaste se nebo zaregistrujte ZDARMA.


Akční / Dobrodružný / Komedie

USA, 2010, 117 min (Director's cut: 128 min)
Režie:
Joe Carnahan
Scénář:
Joe Carnahan, Brian Bloom, Skip Woods
Kamera:
Mauro Fiore
Hudba:
Alan Silvestri
Hrají:
Liam Neeson, Bradley Cooper, Sharlto Copley, Quinton 'Rampage' Jackson, Jessica Biel, Patrick Wilson, Omari Hardwick, Brian Bloom, Dwight Schultz, Dirk Benedict, Yul Vazquez, Henry Czerny, Jon Hamm, Terry Chen, Anita Brown, Tom Butler, C. Ernst Harth, Brendan Penny, Don Knodel

Tihle čtyři chlapíci bývali vysoce kvalifikovanými a respektovanými členy elitní armádní jednotky. Byli obdivováni pro svůj mimořádný talent a schopnost zvládnout i ty nejtěžší mise, aniž by se u toho byť jen trochu zapotili. To platilo ovšem pouze do té doby, než byli nasazeni do přísně tajné mise, která byla připravena pouze k tomu, aby je dostala za mříže. A tam měli zůstat po zbytek života... Plukovník John 'Hannibal' Smith (Liam Neeson), poručík Templeton 'Hezoun' Peck (Bradley Cooper), seržant Bosco 'B.A.' Baracus (Quinton 'Rampage' Jackson) a kapitán H.M. 'Šílenec' Murdock (Sharlto Copley) jsou odsouzeni vojenským soudem a vsazeni do vězení s maximální ostrahou za zločin, který nespáchali. Válečným veteránům se ale podaří z vězení uprchnout a ukrýt se v podzemí Los Angeles. Stanou se z nich vyděděnci, psanci v zemi, kterou léta chránili a za kterou bojovali. Stále na útěku před "spravedlností" se z nich stávají žoldáci pomáhající lidem, kteří si jinou pomoc dovolit nemohou.

INFO :
Jen registrovaní uživatelé mohou vidět odkazy v code. Přihlaste se nebo zaregistrujte ZDARMA.


DOWNLOAD :
Jen registrovaní uživatelé mohou vidět odkazy v code. Přihlaste se nebo zaregistrujte ZDARMA.


Jen registrovaní uživatelé mohou vidět odkazy v code. Přihlaste se nebo zaregistrujte ZDARMA.


Jen registrovaní uživatelé mohou vidět odkazy v code. Přihlaste se nebo zaregistrujte ZDARMA.


Jen registrovaní uživatelé mohou vidět odkazy v code. Přihlaste se nebo zaregistrujte ZDARMA.



HESLO :
Jen registrovaní uživatelé mohou vidět odkazy v code. Přihlaste se nebo zaregistrujte ZDARMA.


22 zář 2013, 08:33
Profil
Major
Major

Registrován: 30 pro 2007, 17:16
Příspěvky: 345
Příspěvek Re: A-Team / A Team / A-Team, The (2010)

A-Team / A-Team, The (2010)

PREDĹŽENÁ VERZIA
BluRay 1080p
Audio: CZ AC-3, EN DTS
Subtitles: CZ

Re: A-Team / A Team / A-Team, The (2010)

Jen registrovaní uživatelé mohou vidět odkazy v code. Přihlaste se nebo zaregistrujte ZDARMA.


Citace:
Format : Matroska
Format version : Version 2
File size : 15.4 GiB
Duration : 2h 13mn
Overall bit rate mode : Variable
Overall bit rate : 16.6 Mbps

Video
Format : AVC
Format profile : [email protected]
Duration : 2h 13mn
Nominal bit rate : 12.0 Mbps
Width : 1 920 pixels
Height : 816 pixels
Display aspect ratio : 2.35:1
Frame rate mode : Constant
Frame rate : 23.976 fps
Color space : YUV
Chroma subsampling : 4:2:0
Bit depth : 8 bits
Scan type : Progressive
Language : English

Audio #1
Format : AC-3
Duration : 2h 13mn
Bit rate mode : Constant
Bit rate : 448 Kbps
Channel(s) : 6 channels
Channel positions : Front: L C R, Side: L R, LFE
Sampling rate : 48.0 KHz
Bit depth : 16 bits
Compression mode : Lossy
Stream size : 428 MiB (3%)
Language : Czech

Audio #2
Format : DTS
Duration : 2h 13mn
Bit rate mode : Variable
Bit rate : 1 509 Kbps
Channel(s) : 6 channels
Channel positions : Front: L C R, Side: L R, LFE
Sampling rate : 48.0 KHz
Bit depth : 24 bits
Compression mode : Lossless / Lossy
Language : English

Text
Format : VobSub
Language : Czech


Fastshare
Jen registrovaní uživatelé mohou vidět odkazy v code. Přihlaste se nebo zaregistrujte ZDARMA.


Pridaný záznam pre opravu dát 5%.


19 zář 2014, 20:06
Profil
Warman
Warman
Uživatelský avatar

Registrován: 25 lis 2008, 11:02
Příspěvky: 6583
Příspěvek Re: A-Team / A Team / A-Team, The (2010)

A-Team / A-Team, The (2010)

Jazyk : CZ 5.1 AC3 / EN 5.1 DTS
Titulky : CZ / CZ forced


The.A-Team.Extended.Cut.2010.1080p.BluRay.x264.DTS-WiKi.CZ-GOGO

Re: A-Team / A Team / A-Team, The (2010)
CSFD
Jen registrovaní uživatelé mohou vidět odkazy v code. Přihlaste se nebo zaregistrujte ZDARMA.

MediaInfo
Jen registrovaní uživatelé mohou vidět odkazy v code. Přihlaste se nebo zaregistrujte ZDARMA.

Jen registrovaní uživatelé mohou vidět odkazy v code. Přihlaste se nebo zaregistrujte ZDARMA.

Fastshare
Jen registrovaní uživatelé mohou vidět odkazy v code. Přihlaste se nebo zaregistrujte ZDARMA.

No Pass


31 kvě 2016, 16:17
Profil
Warman
Warman
Uživatelský avatar

Registrován: 08 črc 2007, 10:57
Příspěvky: 8225
Příspěvek Re: A-Team / A Team / A-Team, The (2010)

A-Team / A-Team, The (2010)
A-Team: Poslední mise
A-Team: Posledná misia

Re: A-Team / A Team / A-Team, The (2010)
Akční / Dobrodružný / Komedie / Krimi / Thriller
USA, 2010, 117 min (Director's cut: 128 min)
Jen registrovaní uživatelé mohou vidět odkazy v code. Přihlaste se nebo zaregistrujte ZDARMA.

Režie: Joe Carnahan
Scénář: Joe Carnahan, Brian Bloom, Skip Woods, Frank Lupo (původní scénář), Stephen J. Cannell (původní scénář)
Kamera: Mauro Fiore
Hudba: Alan Silvestri, Patrick J. Carney
Hrají: Liam Neeson, Bradley Cooper, Sharlto Copley, Quinton 'Rampage' Jackson, Jessica Biel, Patrick Wilson, Omari Hardwick, Brian Bloom, Dwight Schultz, Dirk Benedict, Yul Vazquez, Henry Czerny, Jon Hamm, Terry Chen, Anita Brown, Tom Butler, C. Ernst Harth, Brendan Penny, Don Knodel, Monique Ganderton, Jacob Blair, Gerald McRaney, Maury Sterling, Kwesi Ameyaw, Victor Formosa, Marc-Anthony Massiah, Raf Rogers, Jennifer Cheon, Jason Schombing, Stefan Arngrim

Obsah

Tihle čtyři chlapíci bývali vysoce kvalifikovanými a respektovanými členy elitní armádní jednotky. Byli obdivováni pro svůj mimořádný talent a schopnost zvládnout i ty nejtěžší mise, aniž by se u toho byť jen trochu zapotili. To platilo ovšem pouze do té doby, než byli nasazeni do přísně tajné mise, která byla připravena pouze k tomu, aby je dostala za mříže. A tam měli zůstat po zbytek života... Plukovník John 'Hannibal' Smith (Liam Neeson), poručík Templeton 'Hezoun' Peck (Bradley Cooper), seržant Bosco 'B.A.' Baracus (Quinton 'Rampage' Jackson) a kapitán H.M. 'Šílenec' Murdock (Sharlto Copley) jsou odsouzeni vojenským soudem a vsazeni do vězení s maximální ostrahou za zločin, který nespáchali. Válečným veteránům se ale podaří z vězení uprchnout a ukrýt se v podzemí Los Angeles. Stanou se z nich vyděděnci, psanci v zemi, kterou léta chránili a za kterou bojovali. Stále na útěku před "spravedlností" se z nich stávají žoldáci pomáhající lidem, kteří si jinou pomoc dovolit nemohou.

Jazyk: CZ 5.1 AC-3,EN 5.1 DTS
Titulky: CZ + CZ Forced


Jen registrovaní uživatelé mohou vidět odkazy v code. Přihlaste se nebo zaregistrujte ZDARMA.


Bez HESLA
PŘED STAHOVÁNÍM JE TŘEBA ZKONTROLOVAT FUNKČNOST LINKŮ !!!

PŘIDÁN ZÁZNAM NA OPRAVU DAT 5% .POKUD ARCHÍV NEJDE ROZBALIT A HLASÍ CHYBU CRC,
JE POTŘEBA OPRAVA VE WINRARU.

Rary nezálohuju!!! Po nabonzování novej up
Re: A-Team / A Team / A-Team, The (2010)Re: A-Team / A Team / A-Team, The (2010)
Jeden link:
fastshare
Jen registrovaní uživatelé mohou vidět odkazy v code. Přihlaste se nebo zaregistrujte ZDARMA.

fastshare
Jen registrovaní uživatelé mohou vidět odkazy v code. Přihlaste se nebo zaregistrujte ZDARMA.

sdilej
Jen registrovaní uživatelé mohou vidět odkazy v code. Přihlaste se nebo zaregistrujte ZDARMA.

euroshare
Jen registrovaní uživatelé mohou vidět odkazy v code. Přihlaste se nebo zaregistrujte ZDARMA.

datoid
Jen registrovaní uživatelé mohou vidět odkazy v code. Přihlaste se nebo zaregistrujte ZDARMA.

hellshare
Jen registrovaní uživatelé mohou vidět odkazy v code. Přihlaste se nebo zaregistrujte ZDARMA.

Linky jsou kombinovatelné
STÁHNOUT,VYZKOUŠET A POSOUDIT,ZDA KOUPIT,NEBO NEKOUPIT,,,
Koupí pirátských filmů podporujete zloděje
Pokud jsi můj upload stáhl a líbil se Ti,kup si ho,dokud je ještě k mání.
PODĚKOVÁNÍ VÁM NEUBLÍŽÍ A MĚ MOTIVUJE
Jak předejít infarktu?Poslat do řiti každého dřív,než Tě nasere,,,
enjoy_by_lepin
Re: A-Team / A Team / A-Team, The (2010)
Re: A-Team / A Team / A-Team, The (2010)


Naposledy upravil lepin dne 12 lis 2016, 14:15, celkově upraveno 1

06 srp 2016, 17:16
Profil
Warman
Warman
Uživatelský avatar

Registrován: 08 črc 2007, 10:57
Příspěvky: 8225
Příspěvek Re: A-Team / A Team / A-Team, The (2010)

MŮJ PŘÍSPĚVEK AKTUALIZOVÁN !!! 12.11.2016


12 lis 2016, 14:19
Profil
Zobrazit příspěvky za předchozí:  Seřadit podle  
Odeslat nové téma Odpovědět na téma  [ Příspěvků: 10 ] 

Všechny časy jsou v UTC + 1 hodina


Nemůžete zakládat nová témata v tomto fóru
Nemůžete odpovídat v tomto fóru
Nemůžete upravovat své příspěvky v tomto fóru
Nemůžete mazat své příspěvky v tomto fóru
Nemůžete přikládat soubory v tomto fóru









StahovaniZaSMS Pizza Modena MP3 free download